Muuta Streaming Server 0.2

  • Just tried to install on XP machine, installation went fine, I could load the web page. So it is certainly something to do with wither Server 2003 OS or permitions (although I think I have given all permissions possible). So hopefully I can get some other advice on installation on Windows Server 2003.


    Is this tool supposed to woth with Enigma 1 devices? I tried to read bouguets from DM800 and that went welll. It didn't read from DM7000 however.


    Managed to ready DM800 channels, selected one, clicked play button, new window appeared with flash player logo, but video did not show up. Any advice ?


    Is this supposed to work with Windows Mobile? This would be great to be able to do that,

    • Official Post

    Sorry have no more idea about your win server :winking_face:


    Quote

    Is this tool supposed to woth with Enigma 1 devices?


    Well not directly. The tool works up to now, only with E2 boxes. But u can add manually stream in for E1 Boxes. Grab the stream path of a downloaded m3u file and add it to the stream link in muuta. That works.


    And for watching something with the embedded JW Player is the flash plugin needed.

  • Ersteinmal vielen Dank für dieses Tool. Soweit funktioniert alles prima. Ich kann aber leider nur den Stream sehen den ich gerade aud der Dream anschaue. Kann ich über Muuta auch die Sender umschalten und dann streamen?

  • Hallo


    hab folgendes Problem: Als ich die creat database startete konnte den Benutzername eingeben dann musste man noch die email Adresse eingeben und genau da hat mein computer gebockt. Leider war alles blockiert und ich musste den strom wegnehmen. Nun wenn ich das gleiche wiederholen möchte läuft die creat database ab aber ich habe keine Möglichkeit mehr Daten einzugeben denn das Dos - Fenster verschwindet gleich wieder. Mein Betriebssystem ist Vista und ich habe ja auch vorgängig die Rechte vergeben.
    Habe dann muuta deinstalliert und nochmals alles versucht aber keine chance.
    Wie kann ich nochmals einen neuen account für creat database anlegen und meine Daten eingeben?

  • hallo .. ich habe es auch mal unter debian installiert.. leider sehe ich den stream nicht.. er lädt und läd und läd :winking_face:


    debian spuckt folgendes aus:



    2010-01-04 19:31:08+0100 [-] 195.37.19.246 - - [04/Jan/2010:19:31:08 +0200] "GET /muuta/dreambox/1/ HTTP/1.1" 200 10156 "https://xxxxxxxxx.homeip.net:10999/muuta/dreambox/bouquet/1/" "Mozilla/5.0 (Windows; U; Windows NT 5.1; de; rv:1.9.1.5) Gecko/20091102 Firefox/3.5.5"
    2010-01-04 19:31:12+0100 [-] 195.37.19.246 - - [04/Jan/2010:19:31:12 +0200] "GET /muuta/dreambox/bouquet/7/ HTTP/1.1" 200 45583 "https://xxxxxx.homeip.net:10999/muuta/dreambox/1/" "Mozilla/5.0 (Windows; U; Windows NT 5.1; de; rv:1.9.1.5) Gecko/20091102 Firefox/3.5.5"
    2010-01-04 19:31:15+0100 [-] 195.37.19.246 - - [04/Jan/2010:19:31:15 +0200] "GET /muuta/player/dreambox/service/510/ HTTP/1.1" 200 1176 "https://xxxxxxxxxx.homeip.net:10999/muuta/dreambox/bouquet/7/" "Mozilla/5.0 (Windows; U; Windows NT 5.1; de; rv:1.9.1.5) Gecko/20091102 Firefox/3.5.5"
    2010-01-04 19:31:15+0100 [-] 195.37.19.246 - - [04/Jan/2010:19:31:15 +0200] "GET /muuta/dreambox/bouquet/7/ HTTP/1.1" 200 45583 "https://xxxxxxxxx.homeip.net:10999/muuta/dreambox/bouquet/7/" "Mozilla/5.0 (Windows; U; Windows NT 5.1; de; rv:1.9.1.5) Gecko/20091102 Firefox/3.5.5"
    2010-01-04 19:31:17+0100 [-] 195.37.19.246 - - [04/Jan/2010:19:31:17 +0200] "GET /muuta/player/dreambox/service/510/1/ HTTP/1.1" 200 1754 "https://xxxxxxxx.homeip.net:10999/muuta/player/dreambox/service/510/" "Mozilla/5.0 (Windows; U; Windows NT 5.1; de; rv:1.9.1.5) Gecko/20091102 Firefox/3.5.5"
    2010-01-04 19:31:17+0100 [HTTPChannel,4,195.37.19.246] 1 using FFmpegProfile 'Flash 600 KBit/s'
    2010-01-04 19:31:17+0100 [HTTPChannel,4,195.37.19.246] ['-y', '-ss', '00:00:00', '-g', '60', '-i', 'http://192.168.0.20:8001/1%3A0%3A1%3A8FD%3AC5A8%3A7E%3A460000%3A0%3A0%3A0%3A', '-f', 'flv', '-aspect', '16:9', '-ab', '128kb', '-b', '500kb', '-r', '15', '-acodec', 'libmp3lame', '-ar', '44100', '-ac', '2', '-s', '320x180', '-']
    2010-01-04 19:31:17+0100 [HTTPChannel,4,195.37.19.246] 1 CONNECTIONMADE
    2010-01-04 19:31:17+0100 [-] 1 muuta FFmpeg version r11872+debian_0.svn20080206-18, Copyright (c) 2000-2008 Fabrice Bellard, et al.
    2010-01-04 19:31:17+0100 [-]
    2010-01-04 19:31:17+0100 [-] 1 muuta configuration: --enable-gpl --enable-libfaad --enable-pp --enable-swscaler --enable-x11grab --prefix=/usr --enable-libgsm --enable-libtheora --enable-libvorbis --enable-pthreads --disable-strip --enable-libdc1394 --disable-armv5te --disable-armv6 --disable-altivec --disable-vis --enable-shared --disable-static
    2010-01-04 19:31:17+0100 [-]
    2010-01-04 19:31:17+0100 [-] 1 muuta libavutil version: 49.6.0
    2010-01-04 19:31:17+0100 [-]
    2010-01-04 19:31:17+0100 [-] 1 muuta libavcodec version: 51.50.0
    2010-01-04 19:31:17+0100 [-]
    2010-01-04 19:31:17+0100 [-] 1 muuta libavformat version: 52.7.0
    2010-01-04 19:31:17+0100 [-]
    2010-01-04 19:31:17+0100 [-] 1 muuta libavdevice version: 52.0.0
    2010-01-04 19:31:17+0100 [-]
    2010-01-04 19:31:17+0100 [-] 1 muuta built on Jun 24 2009 07:18:10
    2010-01-04 19:31:17+0100 [-] 1 muuta , gcc: 4.3.2
    2010-01-04 19:31:17+0100 [-]
    2010-01-04 19:31:39+0100 [-] 1 muuta Input #0, mpegts, from 'http://192.168.0.20:8001/1%3A0%3A1%3A8FD%3AC5A8%3A7E%3A460000%3A0%3A0%3A0%3A':
    2010-01-04 19:31:39+0100 [-]
    2010-01-04 19:31:39+0100 [-] 1 muuta Duration:
    2010-01-04 19:31:39+0100 [-] 1 muuta N/A
    2010-01-04 19:31:39+0100 [-] 1 muuta , start:
    2010-01-04 19:31:39+0100 [-] 1 muuta 59930.029000
    2010-01-04 19:31:39+0100 [-] 1 muuta , bitrate:
    2010-01-04 19:31:39+0100 [-] 1 muuta 9128 kb/s
    2010-01-04 19:31:39+0100 [-] 1 muuta
    2010-01-04 19:31:39+0100 [-]
    2010-01-04 19:31:39+0100 [-] 1 muuta Program 2358
    2010-01-04 19:31:39+0100 [-]
    2010-01-04 19:31:39+0100 [-] 1 muuta Program 1351
    2010-01-04 19:31:39+0100 [-]
    2010-01-04 19:31:39+0100 [-] 1 muuta Program 1353
    2010-01-04 19:31:39+0100 [-]
    2010-01-04 19:31:39+0100 [-] 1 FFMPEG outConnectionLost
    2010-01-04 19:31:39+0100 [-] 1 muuta Program 1352
    2010-01-04 19:31:39+0100 [-] Program 2301
    2010-01-04 19:31:39+0100 [-] Stream #0.0[0x834]: Video: mpeg2video, yuv420p, 720x576 [PAR 16:15 DAR 4:3], 9000 kb/s, 25.00 tb(r)
    2010-01-04 19:31:39+0100 [-] Stream #0.1[0x898](TUR): Audio: mp2, 48000 Hz, stereo, 128 kb/s
    2010-01-04 19:31:39+0100 [-] Program 2302
    2010-01-04 19:31:39+0100 [-] Program 2306
    2010-01-04 19:31:39+0100 [-] Program 2307
    2010-01-04 19:31:39+0100 [-] Program 2309
    2010-01-04 19:31:39+0100 [-] Program 2310
    2010-01-04 19:31:39+0100 [-] Program 2311
    2010-01-04 19:31:39+0100 [-] Program 2313
    2010-01-04 19:31:39+0100 [-] Program 2326
    2010-01-04 19:31:39+0100 [-] Program 2327
    2010-01-04 19:31:39+0100 [-] Program 2328
    2010-01-04 19:31:39+0100 [-] Program 2340
    2010-01-04 19:31:39+0100 [-] Program 2354
    2010-01-04 19:31:39+0100 [-] Program 2359
    2010-01-04 19:31:39+0100 [-] Program 2373
    2010-01-04 19:31:39+0100 [-] Program 2385
    2010-01-04 19:31:39+0100 [-] Program 2390
    2010-01-04 19:31:39+0100 [-] Program 2391
    2010-01-04 19:31:39+0100 [-] Program 2395
    2010-01-04 19:31:39+0100 [-] Program 2392
    2010-01-04 19:31:39+0100 [-] Unknown encoder 'libmp3lame'
    2010-01-04 19:31:39+0100 [-]
    2010-01-04 19:31:39+0100 [-] 1 FFMPEG errConnectionLost
    2010-01-04 19:31:39+0100 [-] 1 FFMPEG inConnectionLost

    • Official Post
    Quote

    2010-01-04 19:31:39+0100 [-] Unknown encoder 'libmp3lame'


    Dein Problem ist wohl, dass der Audio Codec nicht verfügbar ist, der in den Profilen vorhanden ist (libmp3lame). Vielleicht geht es auch mit einem anderen.


    Kannst du ffmpeg mit --enable-libmp3lame kompilieren, oder vielleicht gibt es ein fertiges Paket, irgendwo in der Debian Welt :)

  • hi freude
    ich habe es hinbekommen mit einigen Schwierigkeiten und alles läuft super vielen dank für diesen muuta server er läuft prima sogar in Thailand kann man nun mit der Dream 800 von uns aus TV - schauen und alle sender Astra/Hotbird selber umschalten 1a super freunde. Auch die Bildqualität ist in Asien für die Verhältnise nicht schlecht. (Musste jedoch einiges anpassen bis alles lief ohne unterbruch relativ für mich viel aufwand) Auch hat man praktisch keine aussetzer. Demnächst mache ich noch tests mit Kalifornien bin gespannt denke müsste auch gehen. Nochmals vielen vielen dank super.

  • hallo liebe freunde


    nach stundenlangen arbeiten habe ich es hinbekommen per localhost zu streamen muuta komme ich rein


    aber mi gelingt es nicht extern reinzukommen ich besitze einen dreambox 800 und fritz box 7270


    web controll funktioniert einwandfrei mit meinen dyndns adresse aber ich füge xxxxx.dyndns.org:10999 die seite kann nicht aufgerufen werden


    sowohl mit internet explorer auch nicht mit firefox mozilla


    bitte um rat schläge


    nach meine meinung muss ich in der fritz box noch was ändern aber was habe lange alles versucht was ich drauf habe aber leide noch ein amateur


    bitte bitte bitte helfen sie mir

    • Official Post

    Dann musst du sicherstellen, dass der Port 10999 auf den PC weitergeleitet ist, auf welchem Muuta läuft. Und korrekt aufrufen musst du es auch noch.


    Nämlich mit... (ist nur ein Beispiel)


    Code
    https://dyndns.dream.org:10999
  • danke für die schnelle antwort


    wie leite ich mit meinem fritz box Port 10999 auf den PC


    bitte um antwort

  • Quote

    Original von mustafa1984
    danke für die schnelle antwort


    wie leite ich mit meinem fritz box Port 10999 auf den PC


    bitte um antwort


    evtl. hilft Dir diese Seite weiter: http://ben.verdi-wlan.de/blog/…ei-fritzbox-bzw-fritzbox/

    "Diejenigen, die ihre Freiheit zugunsten der Sicherheit aufgeben, werden am Ende keines von beiden haben - und verdienen es auch nicht." Benjamin Franklin

  • Quote

    Original von mustafa1984
    ich habe es eingerichtet aber funzt trotzdem nicht


    so ein dreck


    lokal komme ich rein


    zeig doch mal Deine Weiterleitung wie du was wo eingestellt hast...

    "Diejenigen, die ihre Freiheit zugunsten der Sicherheit aufgeben, werden am Ende keines von beiden haben - und verdienen es auch nicht." Benjamin Franklin

  • AndreR84: auch Dir sei gesagt, mit privaten IP´s kann niemand was anfangen!!! Warum also ausradieren??

    "Diejenigen, die ihre Freiheit zugunsten der Sicherheit aufgeben, werden am Ende keines von beiden haben - und verdienen es auch nicht." Benjamin Franklin

  • also ich denke, dass ich das nun (fast) hinbekommen habe...
    ich habe auf meinem Debian ffmpeg neu kompiliert, sodass die Fehlermeldungen im vorrigen Beitrag nicht mehr erscheinen:


    Leider habe ich nun das Probem, dass von meinem Stream nur 3 sekunden angezeigt wird.. danach stoppt der stream.. dann kann ich wieder auf play drücken.. jedoch zeigt er mir immer wieder die selben 3 Sekunden an...


    und so ist dann die ausgabe von muuuttaa :winking_face:


    ', '-ab', '128kb', '-b', '500kb', '-r', '15', '-acodec', 'libmp3lame', '-ar', '44100', '-ac', '2', '-s', '320x180', '-']
    2010-01-05 14:41:38+0100 [HTTPChannel,1,80.135.38.106] 1 CONNECTIONMADE
    2010-01-05 14:41:38+0100 [-] 1 muuta FFmpeg version SVN-r21030, Copyright (c) 2000-2010 Fabrice Bellard, et al.
    2010-01-05 14:41:38+0100 [-] built on Jan 5 2010 14:06:45 with gcc 4.3.2
    2010-01-05 14:41:38+0100 [-] configuration: --enable-gpl --enable-version3 --enable-nonfree --enable-postproc --enable-pthreads --enable-libfaac --enable-libfaad --enable-libmp3lame --enable-libtheora --enable-libx264 --enable-libxvid --enable-x11grab
    2010-01-05 14:41:38+0100 [-] libavutil 50. 7. 0 / 50. 7. 0
    2010-01-05 14:41:38+0100 [-] libavcodec 52.45. 0 / 52.45. 0
    2010-01-05 14:41:38+0100 [-] libavformat 52.46. 0 / 52.46. 0
    2010-01-05 14:41:38+0100 [-] libavdevice 52. 2. 0 / 52. 2. 0
    2010-01-05 14:41:38+0100 [-] libswscale 0. 7. 2 / 0. 7. 2
    2010-01-05 14:41:38+0100 [-] libpostproc 51. 2. 0 / 51. 2. 0
    2010-01-05 14:41:38+0100 [-]
    2010-01-05 14:41:44+0100 [-] 1 muuta [mpegts @ 0x9f86390]max_analyze_duration reached
    2010-01-05 14:41:44+0100 [-]
    2010-01-05 14:41:44+0100 [-] 1 muuta [mpegts @ 0x9f86390]Estimating duration from bitrate, this may be inaccurate
    2010-01-05 14:41:44+0100 [-]
    2010-01-05 14:41:44+0100 [-] 1 muuta
    2010-01-05 14:41:44+0100 [-] Seems stream 0 codec frame rate differs from container frame rate: 50.00 (50/1) -> 25.00 (25/1)
    2010-01-05 14:41:44+0100 [-]
    2010-01-05 14:41:44+0100 [-] 1 muuta Input #0, mpegts, from 'http://192.168.0.20:8001/1%3A0%3A1%3A8FE%3AC5A8%3A7E%3A460000%3A0%3A0%3A0%3A':
    2010-01-05 14:41:44+0100 [-]
    2010-01-05 14:41:44+0100 [-] 1 muuta Duration:
    2010-01-05 14:41:44+0100 [-] 1 muuta N/A
    2010-01-05 14:41:44+0100 [-] 1 muuta , start:
    2010-01-05 14:41:44+0100 [-] 1 muuta 33486.598256
    2010-01-05 14:41:44+0100 [-] 1 muuta , bitrate:
    2010-01-05 14:41:44+0100 [-] 1 muuta 9128 kb/s
    2010-01-05 14:41:44+0100 [-] 1 muuta
    2010-01-05 14:41:44+0100 [-]
    2010-01-05 14:41:44+0100 [-] 1 muuta Program 2358
    2010-01-05 14:41:44+0100 [-] Program 1351
    2010-01-05 14:41:44+0100 [-] Program 1353
    2010-01-05 14:41:44+0100 [-] Program 1352
    2010-01-05 14:41:44+0100 [-] Program 2301
    2010-01-05 14:41:44+0100 [-] Program 2302
    2010-01-05 14:41:44+0100 [-] Stream #0.0[0x835]: Video: mpeg2video, yuv420p, 720x576 [PAR 16:15 DAR 4:3], 9000 kb/s, 25 fps, 25 tbr, 90k tbn, 50 tbc
    2010-01-05 14:41:44+0100 [-] Stream #0.1[0x899](TUR): Audio: mp2, 48000 Hz, 2 channels, s16, 128 kb/s
    2010-01-05 14:41:44+0100 [-] Stream #0.2[0x86c]: Data: 0x0005
    2010-01-05 14:41:44+0100 [-] Program 2306
    2010-01-05 14:41:44+0100 [-] Program 2307
    2010-01-05 14:41:44+0100 [-] Program 2309
    2010-01-05 14:41:44+0100 [-] Program 2310
    2010-01-05 14:41:44+0100 [-] Program 2311
    2010-01-05 14:41:44+0100 [-] Program 2313
    2010-01-05 14:41:44+0100 [-] Program 2326
    2010-01-05 14:41:44+0100 [-] Program 2327
    2010-01-05 14:41:44+0100 [-] Program 2328
    2010-01-05 14:41:44+0100 [-] Program 2340
    2010-01-05 14:41:44+0100 [-] Program 2354
    2010-01-05 14:41:44+0100 [-] Program 2359
    2010-01-05 14:41:44+0100 [-] Program 2373
    2010-01-05 14:41:44+0100 [-] Program 2385
    2010-01-05 14:41:44+0100 [-] Program 2390
    2010-01-05 14:41:44+0100 [-] Program 2391
    2010-01-05 14:41:44+0100 [-] Program 2392
    2010-01-05 14:41:44+0100 [-] Program 2395
    2010-01-05 14:41:44+0100 [-]
    2010-01-05 14:41:44+0100 [-] 1 muuta Output #0, flv, to 'pipe:':
    2010-01-05 14:41:44+0100 [-]
    2010-01-05 14:41:44+0100 [-] 1 muuta Stream #0.0
    2010-01-05 14:41:44+0100 [-] 1 muuta : Video: flv, yuv420p, 320x180 [PAR 1:1 DAR 16:9], q=2-31, 500 kb/s
    2010-01-05 14:41:44+0100 [-] 1 muuta , 1k tbn
    2010-01-05 14:41:44+0100 [-] 1 muuta , 15 tbc
    2010-01-05 14:41:44+0100 [-] 1 muuta
    2010-01-05 14:41:44+0100 [-]
    2010-01-05 14:41:44+0100 [-] 1 muuta Stream #0.1
    2010-01-05 14:41:44+0100 [-] 1 muuta (TUR)
    2010-01-05 14:41:44+0100 [-] 1 muuta : Audio: libmp3lame, 44100 Hz, 2 channels, s16, 128 kb/s
    2010-01-05 14:41:44+0100 [-] 1 muuta
    2010-01-05 14:41:44+0100 [-]
    2010-01-05 14:41:44+0100 [-] 1 muuta Stream mapping:
    2010-01-05 14:41:44+0100 [-]
    2010-01-05 14:41:44+0100 [-] 1 muuta Stream #0.0 -> #0.0
    2010-01-05 14:41:44+0100 [-] Stream #0.1 -> #0.1
    2010-01-05 14:41:44+0100 [-] Press [q] to stop encoding
    2010-01-05 14:41:44+0100 [-]
    2010-01-05 14:41:44+0100 [-] 1 muuta frame= 7 fps= 0 q=2.0 size= 19kB time=0.29 bitrate= 548.8kbits/s dup=0 drop=4
    2010-01-05 14:41:45+0100 [-] 1 muuta frame= 14 fps= 13 q=4.1 size= 124kB time=0.78 bitrate=1293.7kbits/s dup=0 drop=9
    2010-01-05 14:41:45+0100 [-] 1 muuta frame= 22 fps= 14 q=4.1 size= 163kB time=1.25 bitrate=1064.8kbits/s dup=0 drop=14
    2010-01-05 14:41:46+0100 [-] 1 muuta frame= 30 fps= 15 q=2.7 size= 208kB time=1.83 bitrate= 933.2kbits/s dup=0 drop=19
    2010-01-05 14:41:46+0100 [-] 1 muuta frame= 38 fps= 15 q=2.5 size= 241kB time=2.40 bitrate= 820.7kbits/s dup=0 drop=24
    2010-01-05 14:41:47+0100 [-] 1 muuta frame= 45 fps= 15 q=2.3 size= 280kB time=2.98 bitrate= 770.2kbits/s dup=0 drop=30
    2010-01-05 14:41:47+0100 [-] 1 muuta frame= 54 fps= 15 q=2.1 size= 302kB time=3.37 bitrate= 734.1kbits/s dup=0 drop=36
    2010-01-05 14:41:48+0100 [-] 1 muuta frame= 62 fps= 15 q=2.1 size= 337kB time=3.94 bitrate= 700.8kbits/s dup=0 drop=40
    2010-01-05 14:41:48+0100 [-] 1 muuta frame= 69 fps= 15 q=3.3 size= 397kB time=4.52 bitrate= 719.0kbits/s dup=0 drop=46
    2010-01-05 14:41:49+0100 [-] 1 muuta frame= 77 fps= 15 q=3.5 size= 441kB time=4.96 bitrate= 728.7kbits/s dup=0 drop=51
    2010-01-05 14:41:49+0100 [-] 1 muuta frame= 84 fps= 15 q=4.2 size= 485kB time=5.49 bitrate= 724.2kbits/s dup=0 drop=56
    2010-01-05 14:41:49+0100 [-] 1 muuta [mpeg2video @ 0x9fa1c40]ac-tex damaged at 6 17
    2010-01-05 14:41:49+0100 [-]
    2010-01-05 14:41:49+0100 [-] 1 muuta [mpeg2video @ 0x9fa1c40]Warning MVs not available
    2010-01-05 14:41:49+0100 [-]
    2010-01-05 14:41:49+0100 [-] 1 muuta [mpeg2video @ 0x9fa1c40]concealing 855 DC, 855 AC, 855 MV errors
    2010-01-05 14:41:49+0100 [-]
    2010-01-05 14:41:49+0100 [-] 1 muuta [mp2 @ 0x9fba200]incomplete frame
    2010-01-05 14:41:49+0100 [-]
    2010-01-05 14:41:49+0100 [-] 1 muuta Error while decoding stream #0.1
    2010-01-05 14:41:49+0100 [-]
    2010-01-05 14:41:49+0100 [-] 1 muuta frame= 86 fps= 15 q=4.1 Lsize= 525kB time=5.67 bitrate= 759.3kbits/s dup=0 drop=56
    2010-01-05 14:41:49+0100 [-] 1 muuta
    2010-01-05 14:41:49+0100 [-]
    2010-01-05 14:41:49+0100 [-] 1 muuta video:432kB audio:89kB global headers:0kB muxing overhead 0.968671%
    2010-01-05 14:41:49+0100 [-]
    2010-01-05 14:41:49+0100 [-] 1 FFMPEG inConnectionLost
    2010-01-05 14:41:49+0100 [-] 1 FFMPEG outConnectionLost
    2010-01-05 14:41:49+0100 [-] 1 FFMPEG errConnectionLost


    Könnt ihr mir hierbei weiterhelfen?.. ich habe übrigens mit beiden player.swf getestet.... leider zeigen beide zwar das Bild an.. aber nur 3 sek. lang.. dann ist stop!


    image .. gemini aktuell.. box dm800 .. und das Problem besteht bei allen Formaten ..sowohl .. 300 / 600 / 1M ...


    Vielen Dank schonmal..

    • Official Post

    Probiere einmal das hier. Habe hier ein statisch kompiliertes FFmpeg gefunden. Probiere einmal dieses, könnte ja sein dass deines irgend ne Macke hat.


    Kompiliert mit folgenden Optionen


    Quote


    built on Dec 19 2009 01:41:31 with gcc 4.3.2


    configuration: --prefix=/home/marpada/ffmpegful --enable-gpl --enable-version3 --enable-nonfree --disable-ffplay --disable-ffserver --enable-libmp3lame --enable-libfaac --enable-libfaad --enable-libvorbis --enable-libopencore-amrnb --enable-libopencore-amrwb --enable-libxvid --enable-libx264 --extra-ldflags=-static --extra-libs='-lvorbis -logg -lxvidcore -lx264 -lopencore-amrnb -lopencore-amrwb -lfaad -lfaac -lm -lpthread' --disable-doc --enable-small


    Laufen tut es sicher, habe es auf Ubuntu 32bit und 64bit getestet. Mache es in dein Muuta Verzeichnis rein. Und dann passe den ffmpeg Pfad an in der config.xml.


    Viel Glück :grinning_squinting_face:

  • hi,


    erstmal danke für deine schnelle Antwort.. .. so ich habe es ersetzt..bzw. den Pfad angepasst leider das besteht weiterhin das selbe Problem:


    nach 3-4 Sek ist das Bild weg.. jetzt habe ich eine weitere "kleine " Fehlermeldung : output buffer too small (buffer index: 9195, free bytes: 597) , welches ich vorher nicht hatte..





    2010-01-05 16:03:31+0100 [-] libavutil 50. 7. 0 / 50. 7. 0 2010-01-05 16:03:31+0100 [-] libavcodec 52.43. 0 / 52.43. 0 2010-01-05 16:03:31+0100 [-] libavformat 52.44. 0 / 52.44. 0 2010-01-05 16:03:31+0100 [-] libavdevice 52. 2. 0 / 52. 2. 0 2010-01-05 16:03:31+0100 [-] libswscale 0. 7. 2 / 0. 7. 2 2010-01-05 16:03:31+0100 [-] 2010-01-05 16:03:34+0100 [-] 1 muuta [mpeg2video @ 0x91472b0]mpeg_decode_postinit() failure 2010-01-05 16:03:34+0100 [-] 2010-01-05 16:03:39+0100 [-] 1 muuta Last message repeated 9 times 2010-01-05 16:03:39+0100 [-] 2010-01-05 16:03:39+0100 [-] 1 muuta [mpegts @ 0x912ba00]max_analyze_duration reached 2010-01-05 16:03:39+0100 [-] 2010-01-05 16:03:39+0100 [-] 1 muuta [mpegts @ 0x912ba00]Estimating duration from bitrate, this may be inaccurate 2010-01-05 16:03:39+0100 [-] 2010-01-05 16:03:39+0100 [-] 1 muuta 2010-01-05 16:03:39+0100 [-] Seems stream 0 codec frame rate differs from container frame rate: 50.00 (50/1) -> 25.00 (25/1) 2010-01-05 16:03:39+0100 [-] 2010-01-05 16:03:39+0100 [-] 1 muuta Input #0, mpegts, from 'http://192.168.0.20:8001/1%3A0%3A1%3A8FD%3AC5A8%3A7E%3A460000%3A0%3A0%3A0%3A': 2010-01-05 16:03:39+0100 [-] 2010-01-05 16:03:39+0100 [-] 1 muuta Duration: 2010-01-05 16:03:39+0100 [-] 1 muuta N/A, start: 38405.159311, bitrate: 9128 kb/s 2010-01-05 16:03:39+0100 [-] Program 2358 2010-01-05 16:03:39+0100 [-] Program 1351 2010-01-05 16:03:39+0100 [-] Program 1353 2010-01-05 16:03:39+0100 [-] Program 1352 2010-01-05 16:03:39+0100 [-] Program 2301 2010-01-05 16:03:39+0100 [-] Stream #0.0[0x834]: Video: mpeg2video, yuv420p, 720x576 [PAR 16:15 DAR 4:3], 9000 kb/s, 25 fps, 25 tbr, 90k tbn, 50 tbc 2010-01-05 16:03:39+0100 [-] Stream #0.1[0x898](TUR): Audio: mp2, 48000 Hz, 2 channels, s16, 128 kb/s 2010-01-05 16:03:39+0100 [-] Stream #0.2[0x86b]: Data: 0x0005 2010-01-05 16:03:39+0100 [-] Stream #0.3[0x961](tur): Subtitle: 0x0006 2010-01-05 16:03:39+0100 [-] Program 2302 2010-01-05 16:03:39+0100 [-] Program 2306 2010-01-05 16:03:39+0100 [-] Program 2307 2010-01-05 16:03:39+0100 [-] Program 2309 2010-01-05 16:03:39+0100 [-] Program 2310 2010-01-05 16:03:39+0100 [-] Program 2311 2010-01-05 16:03:39+0100 [-] Program 2313 2010-01-05 16:03:39+0100 [-] Program 2326 2010-01-05 16:03:39+0100 [-] Program 2327 2010-01-05 16:03:39+0100 [-] Program 2328 2010-01-05 16:03:39+0100 [-] Program 2340 2010-01-05 16:03:39+0100 [-] Program 2354 2010-01-05 16:03:39+0100 [-] Program 2359 2010-01-05 16:03:39+0100 [-] Program 2373 2010-01-05 16:03:39+0100 [-] Program 2385 2010-01-05 16:03:39+0100 [-] Program 2390 2010-01-05 16:03:39+0100 [-] Program 2391 2010-01-05 16:03:39+0100 [-] Program 2392 2010-01-05 16:03:39+0100 [-] Program 2395 2010-01-05 16:03:39+0100 [-] 2010-01-05 16:03:39+0100 [-] 1 muuta Output #0, flv, to 'pipe:': 2010-01-05 16:03:39+0100 [-] 2010-01-05 16:03:39+0100 [-] 1 muuta Stream #0.0 2010-01-05 16:03:39+0100 [-] 1 muuta : Video: flv, yuv420p, 320x180 [PAR 1:1 DAR 16:9], q=2-31, 500 kb/s 2010-01-05 16:03:39+0100 [-] 1 muuta , 1k tbn 2010-01-05 16:03:39+0100 [-] 1 muuta , 15 tbc 2010-01-05 16:03:39+0100 [-] 1 muuta 2010-01-05 16:03:39+0100 [-] 2010-01-05 16:03:39+0100 [-] 1 muuta Stream #0.1 2010-01-05 16:03:39+0100 [-] 1 muuta (TUR) 2010-01-05 16:03:39+0100 [-] 1 muuta : Audio: libmp3lame, 44100 Hz, 2 channels, s16, 128 kb/s 2010-01-05 16:03:39+0100 [-] 1 muuta 2010-01-05 16:03:39+0100 [-] 2010-01-05 16:03:39+0100 [-] 1 muuta Stream mapping: 2010-01-05 16:03:39+0100 [-] 2010-01-05 16:03:39+0100 [-] 1 muuta Stream #0.0 -> #0.0 2010-01-05 16:03:39+0100 [-] Stream #0.1 -> #0.1 2010-01-05 16:03:39+0100 [-] Press [q] to stop encoding 2010-01-05 16:03:39+0100 [-] [mpeg2video @ 0x91472b0]mpeg_decode_postinit() failure 2010-01-05 16:03:39+0100 [-] Error while decoding stream #0.0 2010-01-05 16:03:39+0100 [-] Error while decoding stream #0.0 2010-01-05 16:03:39+0100 [-] Error while decoding stream #0.0 2010-01-05 16:03:39+0100 [-] Error while decoding stream #0.0 2010-01-05 16:03:39+0100 [-] Error while decoding stream #0.0 2010-01-05 16:03:39+0100 [-] 2010-01-05 16:03:39+0100 [-] 1 muuta Error while decoding stream #0.0 2010-01-05 16:03:39+0100 [-] 2010-01-05 16:03:39+0100 [-] 1 muuta Error while decoding stream #0.0 2010-01-05 16:03:39+0100 [-] 2010-01-05 16:03:39+0100 [-] 1 muuta Error while decoding stream #0.0 2010-01-05 16:03:39+0100 [-] 2010-01-05 16:03:39+0100 [-] 1 muuta Error while decoding stream #0.0 2010-01-05 16:03:39+0100 [-] 2010-01-05 16:03:39+0100 [-] 1 muuta Error while decoding stream #0.0 2010-01-05 16:03:39+0100 [-] 2010-01-05 16:03:39+0100 [-] 1 muuta frame= 5 fps= 0 q=2.0 size= 35kB time=0.78 bitrate= 362.1kbits/s dup=0 drop=3 2010-01-05 16:03:40+0100 [-] 1 muuta frame= 14 fps= 13 q=2.1 size= 97kB time=1.25 bitrate= 630.6kbits/s dup=0 drop=8 2010-01-05 16:03:40+0100 [-] 1 muuta frame= 22 fps= 13 q=2.0 size= 158kB time=1.83 bitrate= 708.8kbits/s dup=0 drop=13 2010-01-05 16:03:41+0100 [-] 1 muuta frame= 30 fps= 14 q=2.0 size= 193kB time=2.40 bitrate= 659.0kbits/s dup=0 drop=19 2010-01-05 16:03:42+0100 [-] 1 muuta frame= 38 fps= 14 q=2.0 size= 237kB time=2.95 bitrate= 656.7kbits/s dup=0 drop=25 2010-01-05 16:03:42+0100 [-] 1 muuta frame= 47 fps= 15 q=2.0 size= 275kB time=3.37 bitrate= 669.6kbits/s dup=0 drop=30 2010-01-05 16:03:43+0100 [-] 1 muuta frame= 55 fps= 15 q=2.1 size= 320kB time=3.94 bitrate= 664.0kbits/s dup=0 drop=35 2010-01-05 16:03:43+0100 [-] 1 muuta frame= 63 fps= 15 q=2.8 size= 371kB time=4.52 bitrate= 671.8kbits/s dup=0 drop=41 2010-01-05 16:03:44+0100 [-] 1 muuta frame= 71 fps= 15 q=3.0 size= 449kB time=5.09 bitrate= 721.9kbits/s dup=0 drop=46 2010-01-05 16:03:44+0100 [-] 1 muuta frame= 79 fps= 15 q=2.3 size= 496kB time=5.67 bitrate= 717.2kbits/s dup=0 drop=51 2010-01-05 16:03:44+0100 [-] 1 muuta Last message repeated 9 times 2010-01-05 16:03:44+0100 [-] 2010-01-05 16:03:44+0100 [-] 1 muuta [mpeg2video @ 0x91472b0]ac-tex damaged at 23 10 2010-01-05 16:03:44+0100 [-] 2010-01-05 16:03:44+0100 [-] 1 muuta [mpeg2video @ 0x91472b0]Warning MVs not available 2010-01-05 16:03:44+0100 [-] 2010-01-05 16:03:44+0100 [-] 1 muuta [mpeg2video @ 0x91472b0]concealing 1170 DC, 1170 AC, 1170 MV errors 2010-01-05 16:03:44+0100 [-] 2010-01-05 16:03:44+0100 [-] 1 muuta [libmp3lame @ 0x9152680]lame: output buffer too small (buffer index: 9195, free bytes: 597) 2010-01-05 16:03:44+0100 [-] 2010-01-05 16:03:44+0100 [-] 1 muuta Audio encoding failed 2010-01-05 16:03:44+0100 [-] 2010-01-05 16:03:44+0100 [-] 1 FFMPEG inConnectionLost 2010-01-05 16:03:44+0100 [-] 1 FFMPEG outConnectionLost 2010-01-05 16:03:44+0100 [-] 1 FFMPEG errConnectionLost

  • Ist so ne Macke von mir. :face_with_rolling_eyes: :face_with_rolling_eyes:


    MFG AndreR84


    Quote

    Original von gib64
    AndreR84: auch Dir sei gesagt, mit privaten IP´s kann niemand was anfangen!!! Warum also ausradieren??

    • 2x Nokia D-BOX2 AVIA 600 NG-RETURN
    • 1x DM 7020 S PB Enigma E1 + 200 GB
    • 2x DM 800HD Oozoon OE2.0 Experimental + GP3 + 500 GB
    • Thecus N4200ECO + 3x 2TB