Posts by Mallah


    Hi mfgeg,


    mein Profil muss ich aktualisieren. Ich habe inzwischen neben der Dm7000 auch ne DM800. Das Netz scheint i.O zu sein, da ich über den Webbrowser per vlc ohne Probleme streamen kannn... ob der Computer genug power hat, kann ich nicht beurteilen. Mich wunderts nur, dass er immer an der selben Stelle hängen bleibt (sprich immer nach 3-4 Sekudnen)...

    Quote

    Original von mfgeg
    Mallah


    Am besten packst du alle deine Outputs in eine Datei rein, wird sehr unübersichtlich ;)


    done!


    wie gesagt, weiterhin besteht das Problem, dass das Bild nach 3 Sek. stopt.
    ..und mehr ist auch net mehr zu sehen...


    2010-01-05 14:41:44+0100 [-] 1 muuta Stream mapping:
    2010-01-05 14:41:44+0100 [-]
    2010-01-05 14:41:44+0100 [-] 1 muuta Stream #0.0 -> #0.0
    2010-01-05 14:41:44+0100 [-] Stream #0.1 -> #0.1
    2010-01-05 14:41:44+0100 [-] Press [q] to stop encoding
    2010-01-05 14:41:44+0100 [-]
    2010-01-05 14:41:44+0100 [-] 1 muuta frame= 7 fps= 0 q=2.0 size= 19kB time=0.29 bitrate= 548.8kbits/s dup=0 drop=4
    2010-01-05 14:41:45+0100 [-] 1 muuta frame= 14 fps= 13 q=4.1 size= 124kB time=0.78 bitrate=1293.7kbits/s dup=0 drop=9
    2010-01-05 14:41:45+0100 [-] 1 muuta frame= 22 fps= 14 q=4.1 size= 163kB time=1.25 bitrate=1064.8kbits/s dup=0 drop=14
    2010-01-05 14:41:46+0100 [-] 1 muuta frame= 30 fps= 15 q=2.7 size= 208kB time=1.83 bitrate= 933.2kbits/s dup=0 drop=19
    2010-01-05 14:41:46+0100 [-] 1 muuta frame= 38 fps= 15 q=2.5 size= 241kB time=2.40 bitrate= 820.7kbits/s dup=0 drop=24
    2010-01-05 14:41:47+0100 [-] 1 muuta frame= 45 fps= 15 q=2.3 size= 280kB time=2.98 bitrate= 770.2kbits/s dup=0 drop=30
    2010-01-05 14:41:47+0100 [-] 1 muuta frame= 54 fps= 15 q=2.1 size= 302kB time=3.37 bitrate= 734.1kbits/s dup=0 drop=36
    2010-01-05 14:41:48+0100 [-] 1 muuta frame= 62 fps= 15 q=2.1 size= 337kB time=3.94 bitrate= 700.8kbits/s dup=0 drop=40
    2010-01-05 14:41:48+0100 [-] 1 muuta frame= 69 fps= 15 q=3.3 size= 397kB time=4.52 bitrate= 719.0kbits/s dup=0 drop=46
    2010-01-05 14:41:49+0100 [-] 1 muuta frame= 77 fps= 15 q=3.5 size= 441kB time=4.96 bitrate= 728.7kbits/s dup=0 drop=51
    2010-01-05 14:41:49+0100 [-] 1 muuta frame= 84 fps= 15 q=4.2 size= 485kB time=5.49 bitrate= 724.2kbits/s dup=0 drop=56
    2010-01-05 14:41:49+0100 [-] 1 muuta [mpeg2video @ 0x9fa1c40]ac-tex damaged at 6 17
    2010-01-05 14:41:49+0100 [-]
    2010-01-05 14:41:49+0100 [-] 1 muuta [mpeg2video @ 0x9fa1c40]Warning MVs not available
    2010-01-05 14:41:49+0100 [-]
    2010-01-05 14:41:49+0100 [-] 1 muuta [mpeg2video @ 0x9fa1c40]concealing 855 DC, 855 AC, 855 MV errors
    2010-01-05 14:41:49+0100 [-]
    2010-01-05 14:41:49+0100 [-] 1 muuta [mp2 @ 0x9fba200]incomplete frame
    2010-01-05 14:41:49+0100 [-]
    2010-01-05 14:41:49+0100 [-] 1 muuta Error while decoding stream #0.1
    2010-01-05 14:41:49+0100 [-]
    2010-01-05 14:41:49+0100 [-] 1 muuta frame= 86 fps= 15 q=4.1 Lsize= 525kB time=5.67 bitrate= 759.3kbits/s dup=0 drop=56
    2010-01-05 14:41:49+0100 [-] 1 muuta
    2010-01-05 14:41:49+0100 [-]
    2010-01-05 14:41:49+0100 [-] 1 muuta video:432kB audio:89kB global headers:0kB muxing overhead 0.968671%
    2010-01-05 14:41:49+0100 [-]
    2010-01-05 14:41:49+0100 [-] 1 FFMPEG inConnectionLost
    2010-01-05 14:41:49+0100 [-] 1 FFMPEG outConnectionLost
    2010-01-05 14:41:49+0100 [-] 1 FFMPEG errConnectionLost

    hi,


    erstmal danke für deine schnelle Antwort.. .. so ich habe es ersetzt..bzw. den Pfad angepasst leider das besteht weiterhin das selbe Problem:


    nach 3-4 Sek ist das Bild weg.. jetzt habe ich eine weitere "kleine " Fehlermeldung : output buffer too small (buffer index: 9195, free bytes: 597) , welches ich vorher nicht hatte..





    2010-01-05 16:03:31+0100 [-] libavutil 50. 7. 0 / 50. 7. 0 2010-01-05 16:03:31+0100 [-] libavcodec 52.43. 0 / 52.43. 0 2010-01-05 16:03:31+0100 [-] libavformat 52.44. 0 / 52.44. 0 2010-01-05 16:03:31+0100 [-] libavdevice 52. 2. 0 / 52. 2. 0 2010-01-05 16:03:31+0100 [-] libswscale 0. 7. 2 / 0. 7. 2 2010-01-05 16:03:31+0100 [-] 2010-01-05 16:03:34+0100 [-] 1 muuta [mpeg2video @ 0x91472b0]mpeg_decode_postinit() failure 2010-01-05 16:03:34+0100 [-] 2010-01-05 16:03:39+0100 [-] 1 muuta Last message repeated 9 times 2010-01-05 16:03:39+0100 [-] 2010-01-05 16:03:39+0100 [-] 1 muuta [mpegts @ 0x912ba00]max_analyze_duration reached 2010-01-05 16:03:39+0100 [-] 2010-01-05 16:03:39+0100 [-] 1 muuta [mpegts @ 0x912ba00]Estimating duration from bitrate, this may be inaccurate 2010-01-05 16:03:39+0100 [-] 2010-01-05 16:03:39+0100 [-] 1 muuta 2010-01-05 16:03:39+0100 [-] Seems stream 0 codec frame rate differs from container frame rate: 50.00 (50/1) -> 25.00 (25/1) 2010-01-05 16:03:39+0100 [-] 2010-01-05 16:03:39+0100 [-] 1 muuta Input #0, mpegts, from 'http://192.168.0.20:8001/1%3A0%3A1%3A8FD%3AC5A8%3A7E%3A460000%3A0%3A0%3A0%3A': 2010-01-05 16:03:39+0100 [-] 2010-01-05 16:03:39+0100 [-] 1 muuta Duration: 2010-01-05 16:03:39+0100 [-] 1 muuta N/A, start: 38405.159311, bitrate: 9128 kb/s 2010-01-05 16:03:39+0100 [-] Program 2358 2010-01-05 16:03:39+0100 [-] Program 1351 2010-01-05 16:03:39+0100 [-] Program 1353 2010-01-05 16:03:39+0100 [-] Program 1352 2010-01-05 16:03:39+0100 [-] Program 2301 2010-01-05 16:03:39+0100 [-] Stream #0.0[0x834]: Video: mpeg2video, yuv420p, 720x576 [PAR 16:15 DAR 4:3], 9000 kb/s, 25 fps, 25 tbr, 90k tbn, 50 tbc 2010-01-05 16:03:39+0100 [-] Stream #0.1[0x898](TUR): Audio: mp2, 48000 Hz, 2 channels, s16, 128 kb/s 2010-01-05 16:03:39+0100 [-] Stream #0.2[0x86b]: Data: 0x0005 2010-01-05 16:03:39+0100 [-] Stream #0.3[0x961](tur): Subtitle: 0x0006 2010-01-05 16:03:39+0100 [-] Program 2302 2010-01-05 16:03:39+0100 [-] Program 2306 2010-01-05 16:03:39+0100 [-] Program 2307 2010-01-05 16:03:39+0100 [-] Program 2309 2010-01-05 16:03:39+0100 [-] Program 2310 2010-01-05 16:03:39+0100 [-] Program 2311 2010-01-05 16:03:39+0100 [-] Program 2313 2010-01-05 16:03:39+0100 [-] Program 2326 2010-01-05 16:03:39+0100 [-] Program 2327 2010-01-05 16:03:39+0100 [-] Program 2328 2010-01-05 16:03:39+0100 [-] Program 2340 2010-01-05 16:03:39+0100 [-] Program 2354 2010-01-05 16:03:39+0100 [-] Program 2359 2010-01-05 16:03:39+0100 [-] Program 2373 2010-01-05 16:03:39+0100 [-] Program 2385 2010-01-05 16:03:39+0100 [-] Program 2390 2010-01-05 16:03:39+0100 [-] Program 2391 2010-01-05 16:03:39+0100 [-] Program 2392 2010-01-05 16:03:39+0100 [-] Program 2395 2010-01-05 16:03:39+0100 [-] 2010-01-05 16:03:39+0100 [-] 1 muuta Output #0, flv, to 'pipe:': 2010-01-05 16:03:39+0100 [-] 2010-01-05 16:03:39+0100 [-] 1 muuta Stream #0.0 2010-01-05 16:03:39+0100 [-] 1 muuta : Video: flv, yuv420p, 320x180 [PAR 1:1 DAR 16:9], q=2-31, 500 kb/s 2010-01-05 16:03:39+0100 [-] 1 muuta , 1k tbn 2010-01-05 16:03:39+0100 [-] 1 muuta , 15 tbc 2010-01-05 16:03:39+0100 [-] 1 muuta 2010-01-05 16:03:39+0100 [-] 2010-01-05 16:03:39+0100 [-] 1 muuta Stream #0.1 2010-01-05 16:03:39+0100 [-] 1 muuta (TUR) 2010-01-05 16:03:39+0100 [-] 1 muuta : Audio: libmp3lame, 44100 Hz, 2 channels, s16, 128 kb/s 2010-01-05 16:03:39+0100 [-] 1 muuta 2010-01-05 16:03:39+0100 [-] 2010-01-05 16:03:39+0100 [-] 1 muuta Stream mapping: 2010-01-05 16:03:39+0100 [-] 2010-01-05 16:03:39+0100 [-] 1 muuta Stream #0.0 -> #0.0 2010-01-05 16:03:39+0100 [-] Stream #0.1 -> #0.1 2010-01-05 16:03:39+0100 [-] Press [q] to stop encoding 2010-01-05 16:03:39+0100 [-] [mpeg2video @ 0x91472b0]mpeg_decode_postinit() failure 2010-01-05 16:03:39+0100 [-] Error while decoding stream #0.0 2010-01-05 16:03:39+0100 [-] Error while decoding stream #0.0 2010-01-05 16:03:39+0100 [-] Error while decoding stream #0.0 2010-01-05 16:03:39+0100 [-] Error while decoding stream #0.0 2010-01-05 16:03:39+0100 [-] Error while decoding stream #0.0 2010-01-05 16:03:39+0100 [-] 2010-01-05 16:03:39+0100 [-] 1 muuta Error while decoding stream #0.0 2010-01-05 16:03:39+0100 [-] 2010-01-05 16:03:39+0100 [-] 1 muuta Error while decoding stream #0.0 2010-01-05 16:03:39+0100 [-] 2010-01-05 16:03:39+0100 [-] 1 muuta Error while decoding stream #0.0 2010-01-05 16:03:39+0100 [-] 2010-01-05 16:03:39+0100 [-] 1 muuta Error while decoding stream #0.0 2010-01-05 16:03:39+0100 [-] 2010-01-05 16:03:39+0100 [-] 1 muuta Error while decoding stream #0.0 2010-01-05 16:03:39+0100 [-] 2010-01-05 16:03:39+0100 [-] 1 muuta frame= 5 fps= 0 q=2.0 size= 35kB time=0.78 bitrate= 362.1kbits/s dup=0 drop=3 2010-01-05 16:03:40+0100 [-] 1 muuta frame= 14 fps= 13 q=2.1 size= 97kB time=1.25 bitrate= 630.6kbits/s dup=0 drop=8 2010-01-05 16:03:40+0100 [-] 1 muuta frame= 22 fps= 13 q=2.0 size= 158kB time=1.83 bitrate= 708.8kbits/s dup=0 drop=13 2010-01-05 16:03:41+0100 [-] 1 muuta frame= 30 fps= 14 q=2.0 size= 193kB time=2.40 bitrate= 659.0kbits/s dup=0 drop=19 2010-01-05 16:03:42+0100 [-] 1 muuta frame= 38 fps= 14 q=2.0 size= 237kB time=2.95 bitrate= 656.7kbits/s dup=0 drop=25 2010-01-05 16:03:42+0100 [-] 1 muuta frame= 47 fps= 15 q=2.0 size= 275kB time=3.37 bitrate= 669.6kbits/s dup=0 drop=30 2010-01-05 16:03:43+0100 [-] 1 muuta frame= 55 fps= 15 q=2.1 size= 320kB time=3.94 bitrate= 664.0kbits/s dup=0 drop=35 2010-01-05 16:03:43+0100 [-] 1 muuta frame= 63 fps= 15 q=2.8 size= 371kB time=4.52 bitrate= 671.8kbits/s dup=0 drop=41 2010-01-05 16:03:44+0100 [-] 1 muuta frame= 71 fps= 15 q=3.0 size= 449kB time=5.09 bitrate= 721.9kbits/s dup=0 drop=46 2010-01-05 16:03:44+0100 [-] 1 muuta frame= 79 fps= 15 q=2.3 size= 496kB time=5.67 bitrate= 717.2kbits/s dup=0 drop=51 2010-01-05 16:03:44+0100 [-] 1 muuta Last message repeated 9 times 2010-01-05 16:03:44+0100 [-] 2010-01-05 16:03:44+0100 [-] 1 muuta [mpeg2video @ 0x91472b0]ac-tex damaged at 23 10 2010-01-05 16:03:44+0100 [-] 2010-01-05 16:03:44+0100 [-] 1 muuta [mpeg2video @ 0x91472b0]Warning MVs not available 2010-01-05 16:03:44+0100 [-] 2010-01-05 16:03:44+0100 [-] 1 muuta [mpeg2video @ 0x91472b0]concealing 1170 DC, 1170 AC, 1170 MV errors 2010-01-05 16:03:44+0100 [-] 2010-01-05 16:03:44+0100 [-] 1 muuta [libmp3lame @ 0x9152680]lame: output buffer too small (buffer index: 9195, free bytes: 597) 2010-01-05 16:03:44+0100 [-] 2010-01-05 16:03:44+0100 [-] 1 muuta Audio encoding failed 2010-01-05 16:03:44+0100 [-] 2010-01-05 16:03:44+0100 [-] 1 FFMPEG inConnectionLost 2010-01-05 16:03:44+0100 [-] 1 FFMPEG outConnectionLost 2010-01-05 16:03:44+0100 [-] 1 FFMPEG errConnectionLost

    also ich denke, dass ich das nun (fast) hinbekommen habe...
    ich habe auf meinem Debian ffmpeg neu kompiliert, sodass die Fehlermeldungen im vorrigen Beitrag nicht mehr erscheinen:


    Leider habe ich nun das Probem, dass von meinem Stream nur 3 sekunden angezeigt wird.. danach stoppt der stream.. dann kann ich wieder auf play drücken.. jedoch zeigt er mir immer wieder die selben 3 Sekunden an...


    und so ist dann die ausgabe von muuuttaa ;-)


    ', '-ab', '128kb', '-b', '500kb', '-r', '15', '-acodec', 'libmp3lame', '-ar', '44100', '-ac', '2', '-s', '320x180', '-']
    2010-01-05 14:41:38+0100 [HTTPChannel,1,80.135.38.106] 1 CONNECTIONMADE
    2010-01-05 14:41:38+0100 [-] 1 muuta FFmpeg version SVN-r21030, Copyright (c) 2000-2010 Fabrice Bellard, et al.
    2010-01-05 14:41:38+0100 [-] built on Jan 5 2010 14:06:45 with gcc 4.3.2
    2010-01-05 14:41:38+0100 [-] configuration: --enable-gpl --enable-version3 --enable-nonfree --enable-postproc --enable-pthreads --enable-libfaac --enable-libfaad --enable-libmp3lame --enable-libtheora --enable-libx264 --enable-libxvid --enable-x11grab
    2010-01-05 14:41:38+0100 [-] libavutil 50. 7. 0 / 50. 7. 0
    2010-01-05 14:41:38+0100 [-] libavcodec 52.45. 0 / 52.45. 0
    2010-01-05 14:41:38+0100 [-] libavformat 52.46. 0 / 52.46. 0
    2010-01-05 14:41:38+0100 [-] libavdevice 52. 2. 0 / 52. 2. 0
    2010-01-05 14:41:38+0100 [-] libswscale 0. 7. 2 / 0. 7. 2
    2010-01-05 14:41:38+0100 [-] libpostproc 51. 2. 0 / 51. 2. 0
    2010-01-05 14:41:38+0100 [-]
    2010-01-05 14:41:44+0100 [-] 1 muuta [mpegts @ 0x9f86390]max_analyze_duration reached
    2010-01-05 14:41:44+0100 [-]
    2010-01-05 14:41:44+0100 [-] 1 muuta [mpegts @ 0x9f86390]Estimating duration from bitrate, this may be inaccurate
    2010-01-05 14:41:44+0100 [-]
    2010-01-05 14:41:44+0100 [-] 1 muuta
    2010-01-05 14:41:44+0100 [-] Seems stream 0 codec frame rate differs from container frame rate: 50.00 (50/1) -> 25.00 (25/1)
    2010-01-05 14:41:44+0100 [-]
    2010-01-05 14:41:44+0100 [-] 1 muuta Input #0, mpegts, from 'http://192.168.0.20:8001/1%3A0%3A1%3A8FE%3AC5A8%3A7E%3A460000%3A0%3A0%3A0%3A':
    2010-01-05 14:41:44+0100 [-]
    2010-01-05 14:41:44+0100 [-] 1 muuta Duration:
    2010-01-05 14:41:44+0100 [-] 1 muuta N/A
    2010-01-05 14:41:44+0100 [-] 1 muuta , start:
    2010-01-05 14:41:44+0100 [-] 1 muuta 33486.598256
    2010-01-05 14:41:44+0100 [-] 1 muuta , bitrate:
    2010-01-05 14:41:44+0100 [-] 1 muuta 9128 kb/s
    2010-01-05 14:41:44+0100 [-] 1 muuta
    2010-01-05 14:41:44+0100 [-]
    2010-01-05 14:41:44+0100 [-] 1 muuta Program 2358
    2010-01-05 14:41:44+0100 [-] Program 1351
    2010-01-05 14:41:44+0100 [-] Program 1353
    2010-01-05 14:41:44+0100 [-] Program 1352
    2010-01-05 14:41:44+0100 [-] Program 2301
    2010-01-05 14:41:44+0100 [-] Program 2302
    2010-01-05 14:41:44+0100 [-] Stream #0.0[0x835]: Video: mpeg2video, yuv420p, 720x576 [PAR 16:15 DAR 4:3], 9000 kb/s, 25 fps, 25 tbr, 90k tbn, 50 tbc
    2010-01-05 14:41:44+0100 [-] Stream #0.1[0x899](TUR): Audio: mp2, 48000 Hz, 2 channels, s16, 128 kb/s
    2010-01-05 14:41:44+0100 [-] Stream #0.2[0x86c]: Data: 0x0005
    2010-01-05 14:41:44+0100 [-] Program 2306
    2010-01-05 14:41:44+0100 [-] Program 2307
    2010-01-05 14:41:44+0100 [-] Program 2309
    2010-01-05 14:41:44+0100 [-] Program 2310
    2010-01-05 14:41:44+0100 [-] Program 2311
    2010-01-05 14:41:44+0100 [-] Program 2313
    2010-01-05 14:41:44+0100 [-] Program 2326
    2010-01-05 14:41:44+0100 [-] Program 2327
    2010-01-05 14:41:44+0100 [-] Program 2328
    2010-01-05 14:41:44+0100 [-] Program 2340
    2010-01-05 14:41:44+0100 [-] Program 2354
    2010-01-05 14:41:44+0100 [-] Program 2359
    2010-01-05 14:41:44+0100 [-] Program 2373
    2010-01-05 14:41:44+0100 [-] Program 2385
    2010-01-05 14:41:44+0100 [-] Program 2390
    2010-01-05 14:41:44+0100 [-] Program 2391
    2010-01-05 14:41:44+0100 [-] Program 2392
    2010-01-05 14:41:44+0100 [-] Program 2395
    2010-01-05 14:41:44+0100 [-]
    2010-01-05 14:41:44+0100 [-] 1 muuta Output #0, flv, to 'pipe:':
    2010-01-05 14:41:44+0100 [-]
    2010-01-05 14:41:44+0100 [-] 1 muuta Stream #0.0
    2010-01-05 14:41:44+0100 [-] 1 muuta : Video: flv, yuv420p, 320x180 [PAR 1:1 DAR 16:9], q=2-31, 500 kb/s
    2010-01-05 14:41:44+0100 [-] 1 muuta , 1k tbn
    2010-01-05 14:41:44+0100 [-] 1 muuta , 15 tbc
    2010-01-05 14:41:44+0100 [-] 1 muuta
    2010-01-05 14:41:44+0100 [-]
    2010-01-05 14:41:44+0100 [-] 1 muuta Stream #0.1
    2010-01-05 14:41:44+0100 [-] 1 muuta (TUR)
    2010-01-05 14:41:44+0100 [-] 1 muuta : Audio: libmp3lame, 44100 Hz, 2 channels, s16, 128 kb/s
    2010-01-05 14:41:44+0100 [-] 1 muuta
    2010-01-05 14:41:44+0100 [-]
    2010-01-05 14:41:44+0100 [-] 1 muuta Stream mapping:
    2010-01-05 14:41:44+0100 [-]
    2010-01-05 14:41:44+0100 [-] 1 muuta Stream #0.0 -> #0.0
    2010-01-05 14:41:44+0100 [-] Stream #0.1 -> #0.1
    2010-01-05 14:41:44+0100 [-] Press [q] to stop encoding
    2010-01-05 14:41:44+0100 [-]
    2010-01-05 14:41:44+0100 [-] 1 muuta frame= 7 fps= 0 q=2.0 size= 19kB time=0.29 bitrate= 548.8kbits/s dup=0 drop=4
    2010-01-05 14:41:45+0100 [-] 1 muuta frame= 14 fps= 13 q=4.1 size= 124kB time=0.78 bitrate=1293.7kbits/s dup=0 drop=9
    2010-01-05 14:41:45+0100 [-] 1 muuta frame= 22 fps= 14 q=4.1 size= 163kB time=1.25 bitrate=1064.8kbits/s dup=0 drop=14
    2010-01-05 14:41:46+0100 [-] 1 muuta frame= 30 fps= 15 q=2.7 size= 208kB time=1.83 bitrate= 933.2kbits/s dup=0 drop=19
    2010-01-05 14:41:46+0100 [-] 1 muuta frame= 38 fps= 15 q=2.5 size= 241kB time=2.40 bitrate= 820.7kbits/s dup=0 drop=24
    2010-01-05 14:41:47+0100 [-] 1 muuta frame= 45 fps= 15 q=2.3 size= 280kB time=2.98 bitrate= 770.2kbits/s dup=0 drop=30
    2010-01-05 14:41:47+0100 [-] 1 muuta frame= 54 fps= 15 q=2.1 size= 302kB time=3.37 bitrate= 734.1kbits/s dup=0 drop=36
    2010-01-05 14:41:48+0100 [-] 1 muuta frame= 62 fps= 15 q=2.1 size= 337kB time=3.94 bitrate= 700.8kbits/s dup=0 drop=40
    2010-01-05 14:41:48+0100 [-] 1 muuta frame= 69 fps= 15 q=3.3 size= 397kB time=4.52 bitrate= 719.0kbits/s dup=0 drop=46
    2010-01-05 14:41:49+0100 [-] 1 muuta frame= 77 fps= 15 q=3.5 size= 441kB time=4.96 bitrate= 728.7kbits/s dup=0 drop=51
    2010-01-05 14:41:49+0100 [-] 1 muuta frame= 84 fps= 15 q=4.2 size= 485kB time=5.49 bitrate= 724.2kbits/s dup=0 drop=56
    2010-01-05 14:41:49+0100 [-] 1 muuta [mpeg2video @ 0x9fa1c40]ac-tex damaged at 6 17
    2010-01-05 14:41:49+0100 [-]
    2010-01-05 14:41:49+0100 [-] 1 muuta [mpeg2video @ 0x9fa1c40]Warning MVs not available
    2010-01-05 14:41:49+0100 [-]
    2010-01-05 14:41:49+0100 [-] 1 muuta [mpeg2video @ 0x9fa1c40]concealing 855 DC, 855 AC, 855 MV errors
    2010-01-05 14:41:49+0100 [-]
    2010-01-05 14:41:49+0100 [-] 1 muuta [mp2 @ 0x9fba200]incomplete frame
    2010-01-05 14:41:49+0100 [-]
    2010-01-05 14:41:49+0100 [-] 1 muuta Error while decoding stream #0.1
    2010-01-05 14:41:49+0100 [-]
    2010-01-05 14:41:49+0100 [-] 1 muuta frame= 86 fps= 15 q=4.1 Lsize= 525kB time=5.67 bitrate= 759.3kbits/s dup=0 drop=56
    2010-01-05 14:41:49+0100 [-] 1 muuta
    2010-01-05 14:41:49+0100 [-]
    2010-01-05 14:41:49+0100 [-] 1 muuta video:432kB audio:89kB global headers:0kB muxing overhead 0.968671%
    2010-01-05 14:41:49+0100 [-]
    2010-01-05 14:41:49+0100 [-] 1 FFMPEG inConnectionLost
    2010-01-05 14:41:49+0100 [-] 1 FFMPEG outConnectionLost
    2010-01-05 14:41:49+0100 [-] 1 FFMPEG errConnectionLost


    Könnt ihr mir hierbei weiterhelfen?.. ich habe übrigens mit beiden player.swf getestet.... leider zeigen beide zwar das Bild an.. aber nur 3 sek. lang.. dann ist stop!


    image .. gemini aktuell.. box dm800 .. und das Problem besteht bei allen Formaten ..sowohl .. 300 / 600 / 1M ...


    Vielen Dank schonmal..

    hallo .. ich habe es auch mal unter debian installiert.. leider sehe ich den stream nicht.. er lädt und läd und läd ;-)


    debian spuckt folgendes aus:



    2010-01-04 19:31:08+0100 [-] 195.37.19.246 - - [04/Jan/2010:19:31:08 +0200] "GET /muuta/dreambox/1/ HTTP/1.1" 200 10156 "https://xxxxxxxxx.homeip.net:10999/muuta/dreambox/bouquet/1/" "Mozilla/5.0 (Windows; U; Windows NT 5.1; de; rv:1.9.1.5) Gecko/20091102 Firefox/3.5.5"
    2010-01-04 19:31:12+0100 [-] 195.37.19.246 - - [04/Jan/2010:19:31:12 +0200] "GET /muuta/dreambox/bouquet/7/ HTTP/1.1" 200 45583 "https://xxxxxx.homeip.net:10999/muuta/dreambox/1/" "Mozilla/5.0 (Windows; U; Windows NT 5.1; de; rv:1.9.1.5) Gecko/20091102 Firefox/3.5.5"
    2010-01-04 19:31:15+0100 [-] 195.37.19.246 - - [04/Jan/2010:19:31:15 +0200] "GET /muuta/player/dreambox/service/510/ HTTP/1.1" 200 1176 "https://xxxxxxxxxx.homeip.net:10999/muuta/dreambox/bouquet/7/" "Mozilla/5.0 (Windows; U; Windows NT 5.1; de; rv:1.9.1.5) Gecko/20091102 Firefox/3.5.5"
    2010-01-04 19:31:15+0100 [-] 195.37.19.246 - - [04/Jan/2010:19:31:15 +0200] "GET /muuta/dreambox/bouquet/7/ HTTP/1.1" 200 45583 "https://xxxxxxxxx.homeip.net:10999/muuta/dreambox/bouquet/7/" "Mozilla/5.0 (Windows; U; Windows NT 5.1; de; rv:1.9.1.5) Gecko/20091102 Firefox/3.5.5"
    2010-01-04 19:31:17+0100 [-] 195.37.19.246 - - [04/Jan/2010:19:31:17 +0200] "GET /muuta/player/dreambox/service/510/1/ HTTP/1.1" 200 1754 "https://xxxxxxxx.homeip.net:10999/muuta/player/dreambox/service/510/" "Mozilla/5.0 (Windows; U; Windows NT 5.1; de; rv:1.9.1.5) Gecko/20091102 Firefox/3.5.5"
    2010-01-04 19:31:17+0100 [HTTPChannel,4,195.37.19.246] 1 using FFmpegProfile 'Flash 600 KBit/s'
    2010-01-04 19:31:17+0100 [HTTPChannel,4,195.37.19.246] ['-y', '-ss', '00:00:00', '-g', '60', '-i', 'http://192.168.0.20:8001/1%3A0%3A1%3A8FD%3AC5A8%3A7E%3A460000%3A0%3A0%3A0%3A', '-f', 'flv', '-aspect', '16:9', '-ab', '128kb', '-b', '500kb', '-r', '15', '-acodec', 'libmp3lame', '-ar', '44100', '-ac', '2', '-s', '320x180', '-']
    2010-01-04 19:31:17+0100 [HTTPChannel,4,195.37.19.246] 1 CONNECTIONMADE
    2010-01-04 19:31:17+0100 [-] 1 muuta FFmpeg version r11872+debian_0.svn20080206-18, Copyright (c) 2000-2008 Fabrice Bellard, et al.
    2010-01-04 19:31:17+0100 [-]
    2010-01-04 19:31:17+0100 [-] 1 muuta configuration: --enable-gpl --enable-libfaad --enable-pp --enable-swscaler --enable-x11grab --prefix=/usr --enable-libgsm --enable-libtheora --enable-libvorbis --enable-pthreads --disable-strip --enable-libdc1394 --disable-armv5te --disable-armv6 --disable-altivec --disable-vis --enable-shared --disable-static
    2010-01-04 19:31:17+0100 [-]
    2010-01-04 19:31:17+0100 [-] 1 muuta libavutil version: 49.6.0
    2010-01-04 19:31:17+0100 [-]
    2010-01-04 19:31:17+0100 [-] 1 muuta libavcodec version: 51.50.0
    2010-01-04 19:31:17+0100 [-]
    2010-01-04 19:31:17+0100 [-] 1 muuta libavformat version: 52.7.0
    2010-01-04 19:31:17+0100 [-]
    2010-01-04 19:31:17+0100 [-] 1 muuta libavdevice version: 52.0.0
    2010-01-04 19:31:17+0100 [-]
    2010-01-04 19:31:17+0100 [-] 1 muuta built on Jun 24 2009 07:18:10
    2010-01-04 19:31:17+0100 [-] 1 muuta , gcc: 4.3.2
    2010-01-04 19:31:17+0100 [-]
    2010-01-04 19:31:39+0100 [-] 1 muuta Input #0, mpegts, from 'http://192.168.0.20:8001/1%3A0%3A1%3A8FD%3AC5A8%3A7E%3A460000%3A0%3A0%3A0%3A':
    2010-01-04 19:31:39+0100 [-]
    2010-01-04 19:31:39+0100 [-] 1 muuta Duration:
    2010-01-04 19:31:39+0100 [-] 1 muuta N/A
    2010-01-04 19:31:39+0100 [-] 1 muuta , start:
    2010-01-04 19:31:39+0100 [-] 1 muuta 59930.029000
    2010-01-04 19:31:39+0100 [-] 1 muuta , bitrate:
    2010-01-04 19:31:39+0100 [-] 1 muuta 9128 kb/s
    2010-01-04 19:31:39+0100 [-] 1 muuta
    2010-01-04 19:31:39+0100 [-]
    2010-01-04 19:31:39+0100 [-] 1 muuta Program 2358
    2010-01-04 19:31:39+0100 [-]
    2010-01-04 19:31:39+0100 [-] 1 muuta Program 1351
    2010-01-04 19:31:39+0100 [-]
    2010-01-04 19:31:39+0100 [-] 1 muuta Program 1353
    2010-01-04 19:31:39+0100 [-]
    2010-01-04 19:31:39+0100 [-] 1 FFMPEG outConnectionLost
    2010-01-04 19:31:39+0100 [-] 1 muuta Program 1352
    2010-01-04 19:31:39+0100 [-] Program 2301
    2010-01-04 19:31:39+0100 [-] Stream #0.0[0x834]: Video: mpeg2video, yuv420p, 720x576 [PAR 16:15 DAR 4:3], 9000 kb/s, 25.00 tb(r)
    2010-01-04 19:31:39+0100 [-] Stream #0.1[0x898](TUR): Audio: mp2, 48000 Hz, stereo, 128 kb/s
    2010-01-04 19:31:39+0100 [-] Program 2302
    2010-01-04 19:31:39+0100 [-] Program 2306
    2010-01-04 19:31:39+0100 [-] Program 2307
    2010-01-04 19:31:39+0100 [-] Program 2309
    2010-01-04 19:31:39+0100 [-] Program 2310
    2010-01-04 19:31:39+0100 [-] Program 2311
    2010-01-04 19:31:39+0100 [-] Program 2313
    2010-01-04 19:31:39+0100 [-] Program 2326
    2010-01-04 19:31:39+0100 [-] Program 2327
    2010-01-04 19:31:39+0100 [-] Program 2328
    2010-01-04 19:31:39+0100 [-] Program 2340
    2010-01-04 19:31:39+0100 [-] Program 2354
    2010-01-04 19:31:39+0100 [-] Program 2359
    2010-01-04 19:31:39+0100 [-] Program 2373
    2010-01-04 19:31:39+0100 [-] Program 2385
    2010-01-04 19:31:39+0100 [-] Program 2390
    2010-01-04 19:31:39+0100 [-] Program 2391
    2010-01-04 19:31:39+0100 [-] Program 2395
    2010-01-04 19:31:39+0100 [-] Program 2392
    2010-01-04 19:31:39+0100 [-] Unknown encoder 'libmp3lame'
    2010-01-04 19:31:39+0100 [-]
    2010-01-04 19:31:39+0100 [-] 1 FFMPEG errConnectionLost
    2010-01-04 19:31:39+0100 [-] 1 FFMPEG inConnectionLost

    Quote

    Original von Oldboke
    Dann liegt das vermutlich an deiner Schüssel oder dem Fernseher.
    Die 800 produziert keine Artefakte und mit einem aktuellen Image ist die Bildqualität 1a.


    hängt denn die signalstärke bzw. signalquali (aktuell 65-70% Signalstärke) auch von der Bildqualität ab? Also mehr Signalstärke, desto besser das Bild.. stimmt diese Aussage?


    Gruß,

    Hallo,


    ich habe heute mal das Image dm500_n8plus_v2.03_20070306
    auf meine dm500c installiert.


    Leider findet die Box keine Sender beim Sendersuchen. Ich habe auch die cables.xml, die hier gepostet wurde rüberkopiert.. leider alles ohne Erfolg.


    Eigentlich habe ich hier noch ne dbox2 kabel stehen, welches die Sendungen problemlos findet. Bringt es war diese cables.xml zu kopierne..?


    ...


    gruß


    Mallah

    Hallo Zusammen,


    ich habe eine DM500 kabel. In meinem Zimmer steht noch ein Nfs Server ( debian Server als NFS Server (stellt ein Bereich aus der internen Festplatte /home/user/nfs zur Verfügung)


    Leider ist mir aufgefallen, dass beim Abspielen über NFS VIDEOs bei meiner DM500 extrem stottern.


    Ich habe hier ein Script gefunden, das ein Netzwerk NFS Speed Test durchführt.


    Mein Ergebnis:



    Results for write throughput:
    15.339 Mbit/s with udp,async,wsize=4096
    15.339 Mbit/s with tcp,async,wsize=4096
    14.913 Mbit/s with udp,async,wsize=8192
    14.913 Mbit/s with udp,async,wsize=32768
    14.913 Mbit/s with udp,async,wsize=16384
    14.913 Mbit/s with tcp,async,wsize=8192
    14.913 Mbit/s with tcp,async,wsize=32768
    14.913 Mbit/s with tcp,async,wsize=16384


    Results for read throughput:
    1.602 Mbit/s with udp,async,rsize=32768
    1.588 Mbit/s with udp,async,rsize=8192
    1.583 Mbit/s with tcp,async,rsize=16384
    1.569 Mbit/s with tcp,async,rsize=8192
    1.556 Mbit/s with udp,async,rsize=4096
    1.542 Mbit/s with udp,async,rsize=16384
    1.529 Mbit/s with tcp,async,rsize=4096
    1.525 Mbit/s with tcp,async,rsize=32768



    wirklich schlecht? Woran könnte das liegen? An der DM500 oder am Server? Auch wenn ich meine 2te Dream die DM7000 verwende als NFS Server für die DM500.. auch da habe ich die Probleme..


    was könnte ich machen?


    Image auf der DM500: Gemini 4.2 Kernel Linux 2.6.9


    Freigabe auf meinem Debian:
    /home/mallah/dm500 *(rw,sync)

    erstmal vielen Dank für deine Antwort..


    ich frage mich jedoch, wieso das mit e1 nicht funktioniert. Die Um-Codierung Funktion wird ja am Rechner durchgeführt und nicht in der Dream...so wieso die E2 Einschränkung?

    Quote

    Originally posted by hele1
    Hallo
    Ich finde Deine Beschreibung super. Die Verzeichnisse sehe ich auch auf meiner DM600. Wenn ich aber einen Film anwähle, wird ein Ladebalken angezeigt, welcher bei 6% abbricht und Enigma 4.5 neu startet.
    Hast Du eine gute Idee?? :kaffee:
    Hele1


    hi hele,


    versuch ma die Dateien in ein sauberes Unterordner zu kopieren...


    sprich z.B C:\Filme\a\deinfilm.avi