UHD mkv mit der DM900

  • Hallo Freunde,


    bin begeistert, dass die Box so schnell nach dem Release so gut funktioniert, das war bei der DM7000 noch anders :)


    Das Abspielen von UHD mkv klappt tadellos, mit ein paar Ausnahmen. Hier habe ich festgestellt, dass es meist an den Subs liegt, falls die Box nicht möchte. Habe dann mit mkvtoolnix die subs entfernt und dann klappt es auch.


    Grundsätzlich spielt die Box aber auch mkv mit Subs ab, aber eben nicht alle. Woran das genau liegt, versuche ich gerade herauszufinden...


    Wie sind eure Erfahrungen?


    Viele Grüße,
    qfactor

  • Hallo ich habe an den Frontanschluss der DM900 eine USB 3.0 Festplatte von WD angeschlossen. Alle UHD mkv mit h.265 ruckeln beim abspielen. Was mache ich falsch?
    Vielen Dank für Eure Hilfe!

  • Quote

    Original von watermanl
    Hallo ich habe an den Frontanschluss der DM900 eine USB 3.0 Festplatte von WD angeschlossen. Alle UHD mkv mit h.265 ruckeln beim abspielen. Was mache ich falsch?
    Vielen Dank für Eure Hilfe!


    Die Platte ist garantiert ntfs formatiert.

  • Also ich habe alle meine Hochauflösenden Filme (auch mkv uhd ) auf NTFS Platten ,hab dann auch noch die ntfs 3 g Kernelmodule und hier stockt nix bei UHD .


    General
    Unique ID : 236766000194219363358178979388166395643 (0xB21F7913D200A475B1E44BB9737E56FB)
    Complete name : L:\UHD\X-Men.Apocalypse.mkv
    Format : Matroska
    Format version : Version 4 / Version 2
    File size : 67.3 GiB
    Duration : 2h 24mn
    Overall bit rate : 66.9 Mbps
    Encoded date : UTC 2016-10-11 20:50:46
    Writing application : mkvmerge v9.4.2 ('So High') 64bit
    Writing library : libebml v1.3.4 + libmatroska v1.4.5


    Video
    ID : 1
    Format : HEVC
    Format/Info : High Efficiency Video Coding
    Format profile : Main 10@L6.1@Main
    Codec ID : V_MPEGH/ISO/HEVC
    Duration : 2h 23mn
    Bit rate : 60.9 Mbps
    Width : 3 840 pixels
    Height : 2 160 pixels
    Display aspect ratio : 16:9
    Frame rate mode : Constant
    Frame rate : 23.976 (24000/1001) fps
    Color space : YUV
    Chroma subsampling : 4:2:0
    Bit depth : 10 bits
    Bits/(Pixel*Frame) : 0.306
    Stream size : 61.2 GiB (91%)
    Writing library : x265 1.9+3-63308f7658c3:[Windows][GCC 5.2.0][64 bit] 10bit
    Encoding settings : wpp / ctu=64 / min-cu-size=8 / max-tu-size=32 / tu-intra-depth=1 / tu-inter-depth=1 / me=1 / subme=2 / merange=57 / no-rect / no-amp / max-merge=2 / temporal-mvp / no-early-skip / rdpenalty=0 / no-tskip / no-tskip-fast / strong-intra-smoothing / no-lossless / no-cu-lossless / no-constrained-intra / no-fast-intra / open-gop / no-temporal-layers / interlace=0 / keyint=240 / min-keyint=24 / scenecut=40 / rc-lookahead=20 / lookahead-slices=8 / bframes=4 / bframe-bias=0 / b-adapt=2 / ref=3 / limit-refs=3 / no-limit-modes / weightp / no-weightb / aq-mode=1 / qg-size=32 / aq-strength=1.00 / cbqpoffs=0 / crqpoffs=0 / rd=3 / psy-rd=2.00 / rdoq-level=0 / psy-rdoq=0.00 / signhide / deblock / sao / no-sao-non-deblock / b-pyramid / cutree / no-intra-refresh / rc=abr / bitrate=61000 / qcomp=0.60 / qpmin=0 / qpmax=51 / qpstep=4 / ipratio=1.40 / pbratio=1.30
    Default : Yes
    Forced : No
    Color range : Limited
    Color primaries : BT.709
    Transfer characteristics : BT.709
    Matrix coefficients : BT.601


    Audio #1
    ID : 2
    Format : DTS
    Format/Info : Digital Theater Systems
    Format profile : MA / ES Matrix / Core
    Mode : 16
    Format settings, Endianness : Big
    Codec ID : A_DTS
    Duration : 2h 23mn
    Bit rate mode : Variable / Constant / Constant
    Bit rate : 5 216 Kbps / 1 509 Kbps / 1 509 Kbps
    Channel(s) : 8 channels / 7 channels / 6 channels
    Channel positions : Front: L C R, Side: L R, Back: L R, LFE / Front: L C R, Side: L R, Back: C, LFE / Front: L C R, Side: L R, LFE
    Sampling rate : 48.0 KHz
    Frame rate : 93.750 fps (512 spf)
    Bit depth : 24 bits
    Compression mode : Lossless / Lossy / Lossy
    Delay relative to video : 1s 395ms
    Stream size : 5.24 GiB (8%)
    Title : English DTS HD 7.1 NIMA4K
    Language : English
    Default : Yes
    Forced : No


    Audio #2
    ID : 3
    Format : DTS
    Format/Info : Digital Theater Systems
    Mode : 16
    Format settings, Endianness : Big
    Codec ID : A_DTS
    Duration : 2h 23mn
    Bit rate mode : Constant
    Bit rate : 768 Kbps
    Channel(s) : 6 channels
    Channel positions : Front: L C R, Side: L R, LFE
    Sampling rate : 48.0 KHz
    Frame rate : 93.750 fps (512 spf)
    Bit depth : 24 bits
    Compression mode : Lossy
    Delay relative to video : 1s 395ms
    Stream size : 791 MiB (1%)
    Title : German DTS 5.1 NIMA4K
    Language : German
    Default : No
    Forced : No


    Text #1
    ID : 4
    Format : PGS
    Muxing mode : zlib
    Codec ID : S_HDMV/PGS
    Codec ID/Info : Picture based subtitle format used on BDs/HD-DVDs
    Duration : 2h 12mn
    Bit rate : 7 980 bps
    Count of elements : 2916
    Stream size : 7.55 MiB (0%)
    Title : NIMA4K
    Language : English
    Default : Yes
    Forced : No


    Text #2
    ID : 5
    Format : PGS
    Muxing mode : zlib
    Codec ID : S_HDMV/PGS
    Codec ID/Info : Picture based subtitle format used on BDs/HD-DVDs
    Duration : 2h 22mn
    Bit rate : 7 234 bps
    Count of elements : 2830
    Stream size : 7.39 MiB (0%)
    Title : NIMA4K
    Language : German
    Default : No
    Forced : No


    Text #3
    ID : 6
    Format : PGS
    Muxing mode : zlib
    Codec ID : S_HDMV/PGS
    Codec ID/Info : Picture based subtitle format used on BDs/HD-DVDs
    Duration : 2h 23mn
    Bit rate : 20.0 Kbps
    Count of elements : 4855
    Stream size : 20.5 MiB (0%)
    Title : NIMA4K
    Language : German
    Default : No
    Forced : No


    Text #4
    ID : 7
    Format : PGS
    Muxing mode : zlib
    Codec ID : S_HDMV/PGS
    Codec ID/Info : Picture based subtitle format used on BDs/HD-DVDs
    Duration : 1h 26mn
    Bit rate : 695 bps
    Count of elements : 186
    Stream size : 441 KiB (0%)
    Title : NIMA4K
    Language : English
    Default : No
    Forced : No


    Menu
    00:00:00.000 : en:Chapter 01
    00:08:18.789 : en:Chapter 02
    00:14:13.185 : en:Chapter 03
    00:18:07.086 : en:Chapter 04
    00:24:55.494 : en:Chapter 05
    00:30:45.343 : en:Chapter 06
    00:36:35.234 : en:Chapter 07
    00:41:00.082 : en:Chapter 08
    00:45:56.503 : en:Chapter 09
    00:49:24.294 : en:Chapter 10
    00:55:22.610 : en:Chapter 11
    00:59:36.823 : en:Chapter 12
    01:04:43.671 : en:Chapter 13
    01:12:35.851 : en:Chapter 14
    01:17:32.898 : en:Chapter 15
    01:22:18.516 : en:Chapter 16
    01:27:45.593 : en:Chapter 17
    01:34:05.806 : en:Chapter 18
    01:36:46.634 : en:Chapter 19
    01:39:50.901 : en:Chapter 20
    01:43:34.374 : en:Chapter 21
    01:49:57.382 : en:Chapter 22
    01:55:08.359 : en:Chapter 23
    01:57:21.659 : en:Chapter 24
    02:03:50.548 : en:Chapter 25
    02:07:56.710 : en:Chapter 26
    02:10:59.101 : en:Chapter 27
    02:12:54.091 : en:Chapter 28



    Das mit den subs usw. ist denke ne andere Sache ,bei mir knallt es zb. immernoch weg wenn ich das Trackautoselekt an habe und den uhd Film starte ,da kommt dann auch was wegen subs usw.
    schalte ich den aus rennt die uhd mkv ohne Probleme


    [TrackAutoselector]:doSelect self._stype servicegst in handle_services ['servicedvb', 'servicegst'] True event audio
    [TrackAutoselector]:selectAudio list of audio streams [<stream idx=0, codec=DTS, languages='['en']' description='DTS audio' DEFAULT>, <stream idx=1, codec=DTS, languages='['de']' description='DTS audio'>]
    [TrackAutoselector]:selectAudio now sorted by language [<stream idx=1, codec=DTS, languages='['de']' description='DTS audio'>, <stream idx=0, codec=DTS, languages='['en']' description='DTS audio' DEFAULT>]
    [TrackAutoselector]:selectAudio now sorted by codec format [<stream idx=1, codec=DTS, languages='['de']' description='DTS audio'>, <stream idx=0, codec=DTS, languages='['en']' description='DTS audio' DEFAULT>]
    [TrackAutoselector]:selectAudio now sorted by default flag [<stream idx=0, codec=DTS, languages='['en']' description='DTS audio' DEFAULT>, <stream idx=1, codec=DTS, languages='['de']' description='DTS audio'>]
    [TrackAutoselector]:selectAudio now sorted by saved flag [<stream idx=0, codec=DTS, languages='['en']' description='DTS audio' DEFAULT>, <stream idx=1, codec=DTS, languages='['de']' description='DTS audio'>]
    [TrackAutoselector]:selectAudio final resorted list of audio streams: [<stream idx=0, codec=DTS, languages='['en']' description='DTS audio' DEFAULT>, <stream idx=1, codec=DTS, languages='['de']' description='DTS audio'>] selectedAudio: 0
    [TrackAutoselector]:doSelect self._stype servicegst in handle_services ['servicedvb', 'servicegst'] True event subtitles
    [TrackAutoselector]:matchAudiostreamPreference stream 0 language 'en' matches one of preferred languages ['de', 'en']
    [TrackAutoselector]:matchAudiostreamPreference stream 1 language 'de' matches one of preferred languages ['de', 'en']
    [TrackAutoselector]:selectSubtitles list of subtitle streams [<stream idx=0, codec=PGS, languages='['en']' DEFAULT>, <stream idx=1, codec=PGS, languages='['de']'>, <stream idx=2, codec=PGS, languages='['de']'>, <stream idx=3, codec=PGS, languages='['en']'>]
    [TrackAutoselector]:selectSubtitles now sorted by codec format [<stream idx=0, codec=PGS, languages='['en']' DEFAULT>, <stream idx=1, codec=PGS, languages='['de']'>, <stream idx=2, codec=PGS, languages='['de']'>, <stream idx=3, codec=PGS, languages='['en']'>]
    [TrackAutoselector]:selectSubtitles now sorted by language [<stream idx=1, codec=PGS, languages='['de']'>, <stream idx=2, codec=PGS, languages='['de']'>, <stream idx=0, codec=PGS, languages='['en']' DEFAULT>, <stream idx=3, codec=PGS, languages='['en']'>]
    [TrackAutoselector]:selectSubtitles now sorted by forced flag [<stream idx=1, codec=PGS, languages='['de']'>, <stream idx=2, codec=PGS, languages='['de']'>, <stream idx=0, codec=PGS, languages='['en']' DEFAULT>, <stream idx=3, codec=PGS, languages='['en']'>]
    [TrackAutoselector]:selectSubtitles now sorted by default flag [<stream idx=0, codec=PGS, languages='['en']' DEFAULT>, <stream idx=1, codec=PGS, languages='['de']'>, <stream idx=2, codec=PGS, languages='['de']'>, <stream idx=3, codec=PGS, languages='['en']'>]
    [TrackAutoselector]:selectSubtitles now sorted by saved flag [<stream idx=0, codec=PGS, languages='['en']' DEFAULT>, <stream idx=1, codec=PGS, languages='['de']'>, <stream idx=2, codec=PGS, languages='['de']'>, <stream idx=3, codec=PGS, languages='['en']'>]
    [TrackAutoselector]:selectSubtitles resorted list of subtitle streams: [<stream idx=0, codec=PGS, languages='['en']' DEFAULT>, <stream idx=1, codec=PGS, languages='['de']'>, <stream idx=2, codec=PGS, languages='['de']'>, <stream idx=3, codec=PGS, languages='['en']'>] playing_idx: None
    [TrackAutoselector]:selectSubtitles enable if saved (by dvb service / media database) 0
    [TrackAutoselector]:selectSubtitles enable if default flag set (non-dvb service) 1
    [TrackAutoselector]:selectSubtitles enable stream <stream idx=0, codec=PGS, languages='['en']' DEFAULT>
    Segmentation fault
    0xb3c7c790(sp=0xbeae99b0) <memset+48>

  • Guten Morgen. Ich werde Eure Tips mal versuchen. Vielleicht liegt es ja wirklich an der Festplatte. Ich schaue sich mal ob die Kernel Module installiert sind !
    Vielen Dank schonmal !

  • Quote

    Bit rate : 60.9 Mbps



    Ist das nicht etwas zu viel für die Box?

    Dreambox 900 UHD SS
    Dreambox 8000 HD: SSSC/T, 2GB CF, DVD
    Qnap TS219 P II + 2TB + 3TB HDD


    NC+ HD
    Sky Germany HD

  • Leider kann ich kein Bild von machen aber auch diese Datei http://demo-uhd3d.com/fiche.php?cat=uhd&id=144
    Wird von der 900 top abgespielt ;)



    General
    Complete name : C:\Users\Zombie\Desktop\ok_Sony_4K_HDR_Camp.mp4
    Format : MPEG-4
    Format profile : Base Media
    Codec ID : isom (isom)
    File size : 1.12 GiB
    Duration : 2mn 7s
    Overall bit rate mode : Variable
    Overall bit rate : 75.8 Mbps
    Encoded date : UTC 2016-02-03 08:01:30
    Tagged date : UTC 2016-02-03 08:01:30


    Video
    ID : 1
    Format : HEVC
    Format/Info : High Efficiency Video Coding
    Format profile : Main 10@L5.1@High
    Codec ID : hvc1
    Codec ID/Info : High Efficiency Video Coding
    Duration : 2mn 7s
    Bit rate : 75.6 Mbps
    Maximum bit rate : 123 Mbps
    Width : 3 840 pixels
    Height : 2 160 pixels
    Display aspect ratio : 16:9
    Frame rate mode : Constant
    Frame rate : 59.940 (60000/1001) fps
    Color space : YUV
    Chroma subsampling : 4:2:0 (Type 2)
    Bit depth : 10 bits
    Bits/(Pixel*Frame) : 0.152
    Stream size : 1.12 GiB (100%)
    Encoded date : UTC 2016-02-03 07:59:49
    Tagged date : UTC 2016-02-03 08:01:32
    Color range : Limited
    Color primaries : BT.2020
    Transfer characteristics : SMPTE ST 2084
    Matrix coefficients : BT.2020 non-constant
    Mastering display color pri : R: x=1.000000 y=1.000000, G: x=1.000000 y=1.000000, B: x=1.000000 y=1.000000, White point: x=1.000000 y=1.000000
    Mastering display luminance : min: 0.1000 cd/m2, max: 0.5000 cd/m2


    Audio
    ID : 2
    Format : AAC
    Format/Info : Advanced Audio Codec
    Format profile : LC
    Codec ID : 40
    Duration : 2mn 7s
    Source duration : 2mn 7s
    Bit rate mode : Variable
    Bit rate : 192 Kbps
    Maximum bit rate : 197 Kbps
    Channel(s) : 2 channels
    Channel positions : Front: L R
    Sampling rate : 48.0 KHz
    Frame rate : 46.875 fps (1024 spf)
    Compression mode : Lossy
    Stream size : 2.91 MiB (0%)
    Source stream size : 2.91 MiB (0%)
    Language : English
    Encoded date : UTC 2016-02-03 07:59:49
    Tagged date : UTC 2016-02-03 08:01:32


    Ist zwar ein blödes Kamera foto aber es soll zeigen das es ohne zu zucken hier läuft mit der Box

  • Hallo ich habe jetzt die KERNEL Modue 3G installiert und die Filme ruckeln trotzdem. Es kommt immer ein kleines rucen beim abspielen des Films sonst läuft er problemlos aber e ruckt ht imer ganz kurz .

  • Hi,
    wird er auch mit der richtigen Frequenz abgespielt?


    ciao

    ---
    7020, Combo, Solo2, Ultimo

  • Die korrekte Bildrate. Bei fast allen Kinofilmen 24fps (Bilder pro Sekunde). Musst du beim Autoresolution plugin so einstellen, dass 24fps auch als 24fps ausgegeben werden sonst ruckelt es.

  • Du hattest Recht ! Ich hatte die Bildwiderholrate auf 50Hz eingestellt. Jetzt habe ich Multi gewählt und die Filme laufen !! Vielen Dank für die Unterstützung !

  • So hab mal noch paar testes gemacht und noch mit 2 anderen getestet.
    Test Datein kann man sich hier http://jell.yfish.us/ zb. runterladen.


    Die Datei mit 160 mbps ging in der Dream 900 ruckelfrei
    Die Datei mit 400 mbps lief in der Dream 900 auch aber da sehr stockend.


    Also die Dream kann denke da schon recht gut mit auch sehr hohen mbps umgehen nur halt nicht mit extremen.

    Files

    • Unbenannt.png

      (205.02 kB, downloaded 1,235 times, last: )

    Edited once, last by zombi ().

  • UHD mkv in h264 laufen leider nicht, oder? (meines Wissens laufen die bisher in keinem 4k Receiver)

  • Nur um sicher zu gehen: Also auch nicht in der DM900 und wird mangels HW Decoder dann auch nie gehen, korrekt.

  • Keine BCM Box kann H.264 >1080p nicht jetzt und auch nicht später, jetzt klar? :)

    Ein kleines Dankeschön, durch eine Spende, nehme ich gerne an, PayPal oder Amazon-Gutschein an dhwz(at)gmx.net

    Edited once, last by dhwz ().

  • Funktioniert bei Euch das der TV in den HDR Modus springt, bei der Wiedergabe von Video Files? (mp4,mkv)
    Mein LG tut das leider nicht :(