Muuta Streaming Server 0.2

  • 3c5x9

    Quote

    Original von yanardag
    Hi,
    hast du es inzwischen hinbekommen wie man aufs android handy
    (milestone hat ja kein flash) streamt?
    gruß
    yanardag


    auf dem nexus lüppts wunderbar. Nur wie krieg ich es auf dem stein zum
    laufen?

  • Quote

    Original von yanardag
    Nur wie krieg ich es auf dem stein zum
    laufen?


    Die Antwort bedingt, das du erklärst wie du es auf dem Nexus hinbekommen hast. Froyo?

    Es heißt auch nicht mehr Troll, sondern Netzbürger mit Frustrationshintergrund.
    <br>
    Leider muß ich es extra schreiben: Kein Support per PM. Privater Support hilft uns nicht weiter als Forum!

  • Quote

    Original von 3c5x9


    Die Antwort bedingt, das du erklärst wie du es auf dem Nexus hinbekommen hast. Froyo?


    Jep mit froyo ! Nexus One ist mit Dolphin HD gelaufen und hab noch aus dem Market Flash 10.1 Beta Installiert.
    Manchmal schmiert der Flash player plugin ab musst du einen kompletten neustart machen taskmanager hilft nicht.


    Hab 3 Profile gemacht fürs eplus-netz optimiert. Und 2 fürs WLAN jeiweils eins fürs Android Handy und eins für den PC


    Code
    Name:	2G
    Command:	-f flv -aspect 16:9 -ab 16kb -b 130kb -r 15 -acodec libmp3lame -ar 44100 -ac 1 -s 224x126


    Code
    Name:	3G
    Command:	-f flv -aspect 16:9 -ab 96kb -b 300kb -r 25 -acodec libmp3lame -ar 44100 -ac 1 -s 320x240


    Code
    Name:	HSDPA
    Command:	-f flv -aspect 16:9 -ab 96kb -b 700kb -r 25 -acodec libmp3lame -ar 44100 -ac 1 -s 480x270


    Code
    Name:	WLAN NEXUS
    Command:	-f flv -aspect 16:9 -ab 96kb -b 1000kb -r 25 -acodec libmp3lame -ar 44100 -ac 1 -s 720x480


    Code
    Name:	PC WLAN
    Command:	-f flv -aspect 16:9 -ab 64kb -b 1000kb -r 25 -acodec libmp3lame -ar 44100 -ac 2 -s 720x576


    Meine Internet Bandbreite ist 32000/1000 Unitymedia also mit ner 1000er upload
    leitung lüppts echt wunderbar. Habe es ausgiebig getestes.


    gruß
    yanardag

  • Cool, danke für die Profile...


    aber damit ist auch das mit dem Milestone soweit erklärt. so lang das kein Flash kann, bleibts bei der bekannten Problematik mit ffmpeg und h264/x264 etc.


    Mir wärs eh lieber wenn man ne Lösung ohne Flash finden würde, aber ich bekomms eben mit ffmpeg so nicht hin bislang.

    Es heißt auch nicht mehr Troll, sondern Netzbürger mit Frustrationshintergrund.
    <br>
    Leider muß ich es extra schreiben: Kein Support per PM. Privater Support hilft uns nicht weiter als Forum!

  • 3c5x9


    hast Du schon mal hier: http://www.ffmpeg.org/bugreports.html einen Bug geschrieben, vielleicht wissen die Jungs dort Abhilfe.

    Dreambox DM7000
    Dreambox DM800
    Dreambox DM500
    Dreambox DM600
    UFS-910
    ET9x00
    ET5000
    DBox II

  • Quote

    Original von 3c5x9
    Cool, danke für die Profile...


    aber damit ist auch das mit dem Milestone soweit erklärt. so lang das kein Flash kann, bleibts bei der bekannten Problematik mit ffmpeg und h264/x264 etc.


    Mir wärs eh lieber wenn man ne Lösung ohne Flash finden würde, aber ich bekomms eben mit ffmpeg so nicht hin bislang.


    Nicht der rede wert. Ich hoffe froyo kommt nächsten monat.
    Ansonsten finde ich muuta richtig toll es funktioniert gut, nur
    manchmal aber schmiert er ab und man muss ein kompletten
    neustart des rechners machen.


    Könnte man eigentlich 2 oder mehrere clients auf einem sender/stream
    Connecten?

  • Quote

    Original von yanardag
    Könnte man eigentlich 2 oder mehrere clients auf einem sender/stream
    Connecten?


    Ja, geht, allerdings wird für jeden client ein eigener ffmpeg thread gestartet, also solang die CPU und der Upload mitmacht geht das. Die Dreambox kann den gleichen Kanal mehrmals streamen.

    Es heißt auch nicht mehr Troll, sondern Netzbürger mit Frustrationshintergrund.
    <br>
    Leider muß ich es extra schreiben: Kein Support per PM. Privater Support hilft uns nicht weiter als Forum!

  • Quote

    Original von 3c5x9


    Ja, geht, allerdings wird für jeden client ein eigener ffmpeg thread gestartet, also solang die CPU und der Upload mitmacht geht das. Die Dreambox kann den gleichen Kanal mehrmals streamen.


    Muss die CPU dann 2 mal ran? Also muss der server dann 2 mal den selben stream runter rechnen?!
    Hab ich das richtig verstanden?
    ne andere frage: Kann man den vorgang auch hardwarebeschleunigen? Also
    den stream mit CUDA(NVIDIA) recodieren?

  • I need help please !!


    When I do a "reindex this Box" on my DM7025 it woks nice.
    but no on my DM500 I get loading Services 500 finished I get non for the
    TV Services or Radio Services

  • What a bummer , is there no way to make it work ?
    It's a nice program the Muuta Streaming Server
    It looks like I will have to replace all my old box's that's going to cost me a lot :wc:

  • Quote

    Original von grootvoed
    What a bummer , is there no way to make it work ?
    It's a nice program the Muuta Streaming Server
    It looks like I will have to replace all my old box's that's going to cost me a lot :wc:


    i think its better to replace the old boxes, a slingbox cost you more with less service

    Dreambox DM7000
    Dreambox DM800
    Dreambox DM500
    Dreambox DM600
    UFS-910
    ET9x00
    ET5000
    DBox II

  • Hab heute mein neues Samsung Wave S8500 bekommen welches ja Flash
    unterstütz, YouTube Flashfilme laufen auch aber Muuta irgendwie nicht.


    Nachdem ich ein Profil ausgewählt habe zeigt es mir das Flash Symbol
    mit einem gelben Dreieck und einer 9 da drin.


    Jemand viellecht ne Idee was das bedeutet?


    Am Netbook läuft Muuta perfekt.

  • Ich würde vermuten, dass der Samsung kein Flash der Version 9 installiert hat, sondern nur eine ältere Version.

    Dreambox DM7000
    Dreambox DM800
    Dreambox DM500
    Dreambox DM600
    UFS-910
    ET9x00
    ET5000
    DBox II


  • Ist beim Nokia N97 genau so!!!!

    __________________________________________________________________


    :rot: Finger weg von HD+ :rot:

  • Hab das hier dazu auf der Adobe Seite gefunden.



    Müssen wohl auf Flash 4 hoffen

  • I need some help if some on can please help me on this here are the screen dup from Muuia:


    2010-06-03 17:55:39+0200 [HTTPChannel,28,172.*.*.164] 8 CONNECTIONMADE
    2010-06-03 17:55:55+0200 [-] 8 grootvoed FFmpeg version SVN-r18639, Copyright (c)
    2000-2009 Fabrice Bellard, et al.
    2010-06-03 17:55:55+0200 [-] configuration: --enable-memalign-hack --enable-po
    stproc --enable-gpl --enable-libfaac --enable-libfaad --enable-libgsm --enable-l
    ibmp3lame --enable-libvorbis --enable-libtheora --enable-libx264 --enable-libxvi
    d --disable-ffserver --enable-avisynth --enable-pthreads
    2010-06-03 17:55:55+0200 [-] libavutil 50. 3. 0 / 50. 3. 0
    2010-06-03 17:55:55+0200 [-] libavcodec 52.27. 0 / 52.27. 0
    2010-06-03 17:55:55+0200 [-] libavformat 52.32. 0 / 52.32. 0
    2010-06-03 17:55:55+0200 [-] libavdevice 52. 2. 0 / 52. 2. 0
    2010-06-03 17:55:55+0200 [-] libswscale 0. 7. 1 / 0. 7. 1
    2010-06-03 17:55:55+0200 [-] libpostproc 51. 2. 0 / 51. 2. 0
    2010-06-03 17:55:55+0200 [-] built on Apr 21 2009 13:44:38, gcc: 4.2.4 (TDM-1
    for MinGW)
    2010-06-03 17:55:55+0200 [-]
    2010-06-03 17:55:55+0200 [-] Seems stream 0 codec frame rate differs from contai
    ner frame rate: 50.00 (50/1) -> 25.00 (25/1)
    2010-06-03 17:55:55+0200 [-] Input #0, mpegts, from 'http://10.0.0.11:8001/1%3A0
    %3A1%3AB4%3A14%3A1800%3A2AD0000%3A0%3A0%3A0%3A':
    2010-06-03 17:55:55+0200 [-] Duration: N/A, start: 73355.602722, bitrate: 1512
    8 kb/s
    2010-06-03 17:55:55+0200 [-] Program 110
    2010-06-03 17:55:55+0200 [-] Program 120
    2010-06-03 17:55:55+0200 [-] Program 130
    2010-06-03 17:55:55+0200 [-] Program 140
    2010-06-03 17:55:55+0200 [-] Program 145
    2010-06-03 17:55:55+0200 [-] Program 150
    2010-06-03 17:55:55+0200 [-] Program 155
    2010-06-03 17:55:55+0200 [-] Program 160
    2010-06-03 17:55:55+0200 [-] Program 180
    2010-06-03 17:55:55+0200 [-] Stream #0.0[0x138f]: Video: mpeg2video, yuv420p
    , 720x576 [PAR 16:15 DAR 4:3], 15000 kb/s, 25 tbr, 90k tbn, 50 tbc
    2010-06-03 17:55:55+0200 [-] Stream #0.1[0x1778]: Audio: mp2, 48000 Hz, ster
    eo, s16, 128 kb/s
    2010-06-03 17:55:55+0200 [-] Program 190
    2010-06-03 17:55:55+0200 [-] Program 195
    2010-06-03 17:55:55+0200 [-] Program 3158
    2010-06-03 17:55:55+0200 [-] Program 3159
    2010-06-03 17:55:55+0200 [-] Program 3161
    2010-06-03 17:55:55+0200 [-] Program 3177
    2010-06-03 17:55:55+0200 [-] Program 10001
    2010-06-03 17:55:55+0200 [-] Output #0, flv, to 'pipe:':
    2010-06-03 17:55:55+0200 [-] Stream #0.0: Video: flv, yuv420p, 640x480 [PAR
    1:1 DAR 4:3], q=2-31, 500 kb/s, 1k tbn, 15 tbc
    2010-06-03 17:55:55+0200 [-] Stream #0.1: Audio: libmp3lame, 44100 Hz, stere
    o, s16, 128 kb/s
    2010-06-03 17:55:55+0200 [-] Stream mapping:
    2010-06-03 17:55:55+0200 [-] Stream #0.0 -> #0.0
    2010-06-03 17:55:55+0200 [-] Stream #0.1 -> #0.1
    2010-06-03 17:55:55+0200 [-] Press [q] to stop encoding
    2010-06-03 17:55:55+0200 [-] frame= 16 fps= 0 q=5.7 size= 62kB time=0.63
    bitrate= 811.9kbits/s
    2010-06-03 17:55:55+0200 [-] 8 grootvoed frame= 22 fps= 21 q=18.0 size= 263k
    B time=1.10 bitrate=1965.6kbits/s
    2010-06-03 17:55:56+0200 [-] 8 grootvoed frame= 30 fps= 19 q=12.7 size= 336k
    B time=1.59 bitrate=1726.3kbits/s
    2010-06-03 17:55:56+0200 [-] 8 grootvoed frame= 37 fps= 18 q=9.8 size= 357kB
    time=2.04 bitrate=1436.3kbits/s
    2010-06-03 17:55:57+0200 [-] 8 grootvoed frame= 43 fps= 17 q=10.4 size= 383k
    B time=2.56 bitrate=1225.2kbits/s
    2010-06-03 17:55:57+0200 [-] 8 grootvoed frame= 51 fps= 17 q=11.7 size= 442k
    B time=2.98 bitrate=1217.2kbits/s
    2010-06-03 17:55:57+0200 [-] 8 grootvoed [mpeg2video @ 0x19c8af0]ac-tex damaged at
    18 3
    2010-06-03 17:55:57+0200 [-] [mpeg2video @ 0x19c8af0]Warning MVs not available
    2010-06-03 17:55:57+0200 [-] [mpeg2video @ 0x19c8af0]concealing 1485 DC, 1485 AC
    , 1485 MV errors
    2010-06-03 17:55:57+0200 [-] frame= 56 fps= 17 q=18.6 Lsize= 494kB time=3.
    40 bitrate=1192.1kbits/s
    2010-06-03 17:55:57+0200 [-] 8 grootvoed
    2010-06-03 17:55:57+0200 [-] video:438kB audio:53kB global headers:0kB muxing ov
    erhead 0.654385%
    2010-06-03 17:55:58+0200 [-]
    2010-06-03 17:55:58+0200 [-] 8 FFMPEG inConnectionLost
    2010-06-03 17:55:58+0200 [-] 8 FFMPEG outConnectionLost
    2010-06-03 17:55:58+0200 [-] 8 FFMPEG errConnectionLost

  • Was muss ich einstellen, damit er erst puffert und dann den stream abspielt?

    The true way is M E R L I N !

  • habe das selbe problem wie 2 posts vor mir:


    2010-06-09 22:21:16+0200 [HTTPChannel,23,192.168.0.37] 192.168.0.37 - - [09/Jun/
    2010:22:21:16 +0200] "GET /mediaplayer/player.swf HTTP/1.1" 200 51669 "https://1
    92.168.0.33:10999/muuta/player/dreambox/service/4/3/" "Mozilla/5.0 (Windows; U;
    Windows NT 5.1; de; rv:1.9.2.3) Gecko/20100401 Firefox/3.0.9, Ant.com Toolbar 1.
    3 (.NET CLR 3.5.30729)"
    2010-06-09 22:21:16+0200 [HTTPChannel,25,192.168.0.37] 4 using FFmpegProfile 'Fl
    ash 2 MBit/s'
    2010-06-09 22:21:16+0200 [HTTPChannel,25,192.168.0.37] ['-y', '-ss', '00:00:00',
    '-g', '60', '-i', 'http://192.168.0.204:8001/1%3A0%3A1%3A445C%3A453%3A1%3AC0000
    0%3A0%3A0%3A0%3A', '-f', 'flv', '-aspect', '16:9', '-ab', '128kb', '-b', '2000kb
    ', '-r', '15', '-acodec', 'libmp3lame', '-ar', '44100', '-ac', '2', '-s', '1280x
    720', '-']
    2010-06-09 22:21:16+0200 [HTTPChannel,25,192.168.0.37] 4 CONNECTIONMADE
    2010-06-09 22:21:33+0200 [-] 4 root FFmpeg version SVN-r16573, Copyright (c) 200
    0-2009 Fabrice Bellard, et al.
    2010-06-09 22:21:33+0200 [-] configuration: --extra-cflags=-fno-common --enabl
    e-memalign-hack --enable-pthreads --enable-libmp3lame --enable-libxvid --enable-
    libvorbis --enable-libtheora --enable-libspeex --enable-libfaac --enable-libgsm
    --enable-libx264 --enable-libschroedinger --enable-avisynth --enable-swscale --e
    nable-gpl
    2010-06-09 22:21:33+0200 [-] libavutil 49.12. 0 / 49.12. 0
    2010-06-09 22:21:33+0200 [-] libavcodec 52.10. 0 / 52.10. 0
    2010-06-09 22:21:33+0200 [-] libavformat 52.23. 1 / 52.23. 1
    2010-06-09 22:21:33+0200 [-] libavdevice 52. 1. 0 / 52. 1. 0
    2010-06-09 22:21:33+0200 [-] libswscale 0. 6. 1 / 0. 6. 1
    2010-06-09 22:21:33+0200 [-] built on Jan 13 2009 02:57:09, gcc: 4.2.4
    2010-06-09 22:21:33+0200 [-] Input #0, mpegts, from 'http://192.168.0.204:8001/1
    %3A0%3A1%3A445C%3A453%3A1%3AC00000%3A0%3A0%3A0%3A':
    2010-06-09 22:21:33+0200 [-] Duration: N/A, start: 66600.302244, bitrate: 1557
    6 kb/s
    2010-06-09 22:21:33+0200 [-] Program 17500
    2010-06-09 22:21:33+0200 [-] Stream #0.0[0xff]: Video: mpeg2video, yuv420p,
    720x576 [PAR 64:45 DAR 16:9], 15000 kb/s, 25.00 tb(r)
    2010-06-09 22:21:33+0200 [-] Stream #0.1[0x100](deu): Audio: mp2, 48000 Hz,
    stereo, s16, 192 kb/s
    2010-06-09 22:21:33+0200 [-] Stream #0.2[0x103](deu): Audio: ac3, 48000 Hz,
    5.1, s16, 384 kb/s
    2010-06-09 22:21:33+0200 [-] Program 17501
    2010-06-09 22:21:33+0200 [-] Program 17502
    2010-06-09 22:21:33+0200 [-] Program 17503
    2010-06-09 22:21:33+0200 [-] Program 17504
    2010-06-09 22:21:33+0200 [-] Program 17505
    2010-06-09 22:21:33+0200 [-] Program 17506
    2010-06-09 22:21:33+0200 [-] Program 17507
    2010-06-09 22:21:33+0200 [-] Program 17508
    2010-06-09 22:21:33+0200 [-] Output #0, flv, to 'pipe:':
    2010-06-09 22:21:33+0200 [-] Stream #0.0: Video: flv, yuv420p, 1280x720 [PAR
    1:1 DAR 16:9], q=2-31, 2000 kb/s, 15.00 tb(c)
    2010-06-09 22:21:33+0200 [-] Stream #0.1(deu): Audio: libmp3lame, 44100 Hz,
    stereo, s16, 128 kb/s
    2010-06-09 22:21:33+0200 [-] Stream mapping:
    2010-06-09 22:21:33+0200 [-] Stream #0.0 -> #0.0
    2010-06-09 22:21:33+0200 [-] Stream #0.1 -> #0.1
    2010-06-09 22:21:33+0200 [-] Press [q] to stop encoding
    2010-06-09 22:21:33+0200 [-] frame= 14 fps= 0 q=2.0 size= 100kB time=0.31
    bitrate=2621.9kbits/s
    2010-06-09 22:21:34+0200 [-] 4 root frame= 24 fps= 23 q=2.0 size= 259kB ti
    me=1.04 bitrate=2031.4kbits/s
    2010-06-09 22:21:34+0200 [-] 4 root frame= 34 fps= 22 q=2.1 size= 531kB ti
    me=1.78 bitrate=2449.5kbits/s
    2010-06-09 22:21:35+0200 [-] 4 root frame= 45 fps= 22 q=2.6 size= 735kB ti
    me=2.38 bitrate=2533.5kbits/s
    2010-06-09 22:21:35+0200 [-] 4 FFMPEG outConnectionLost
    2010-06-09 22:21:35+0200 [-] 4 root [mpeg2video @ 0x1935ef0]ac-tex damaged at 35
    18
    2010-06-09 22:21:35+0200 [-] [mpeg2video @ 0x1935ef0]Warning MVs not available
    2010-06-09 22:21:35+0200 [-] [mpeg2video @ 0x1935ef0]concealing 810 DC, 810 AC,
    810 MV errors
    2010-06-09 22:21:35+0200 [-] [libmp3lame @ 0x1958010]lame: output buffer too sma
    ll (buffer index: 9195, free bytes: 597)
    2010-06-09 22:21:35+0200 [-] Audio encoding failed
    2010-06-09 22:21:35+0200 [-]
    2010-06-09 22:21:35+0200 [-] 4 FFMPEG errConnectionLost
    2010-06-09 22:21:35+0200 [-] 4 FFMPEG inConnectionLost

  • ertmall big thanks funkt supper


    also habe auch zwei fragen


    erstens die ton spur die komt bei mir zu früh oder zu spet wie könten wier das kleren


    zweitens für die e1 benutzer wo könten wier die bonuqutes manuel instalieren und oder wei könten wier das mit dem kanal wechseln regeln


    echt super arbeit das beste was ich zur zeit gesehen habe en parr bugs aber ein anfang


    gruss senkron24