i-have-a-dreambox.com | Dreambox - Support

Register Calendar Members List Team Members Galerie to Portal Go to the Main Page

Boardrules Frequently Asked Questions Statistik Statistik Search Pinwand Dreambox Blog Ihad/Gemini Fan-Shop
i-have-a-dreambox.com | Dreambox - Support » ...::: Archiv - The Gemini Project (GP2 und GP) :::... » ...::: The Gemini Project 2 :::... » The Gemini Project DM500HD » iCVS + GP3 + AVI problem » Hello Guest [Login|Register]
Last Post | First Unread Post Print Page | Add Thread to Favorites
Post New Thread Post Reply
Go to the bottom of this page iCVS + GP3 + AVI problem
Author
Post « Previous Thread | Next Thread »
mr.mavr
Newbie


Registration Date: 23.05.2010
Posts: 7
Which box: DM 500HD
External Storage: HDD
Which Image: iCVS

iCVS + GP3 + AVI problem Reply to this Post Post Reply with Quote Edit/Delete Posts Report Post to a Moderator       Go to the top of this page

Hi All!

Have found that dm500hd is unable to play several AVIs.
Video files are played from the external HDD connected via e-SATA and mini-USB (power). HDD is NTFS formatted.
Image: iCVS-Image-dm500hd-20101223210250 + GP3 plugin.
Have tried with MediaPlayer (installed with iCVS image), EasyMedia GP3, and Enhanced Movie Center.

First file:
code:
1:
2:
3:
4:
5:
6:
7:
8:
9:
10:
11:
12:
13:
14:
15:
16:
17:
18:
19:
20:
21:
22:
23:
24:
25:
26:
27:
28:
29:
30:
31:
32:
33:
34:
35:
36:
37:
38:
39:
40:
41:
42:
43:
44:
45:
46:
47:
48:
49:
50:
51:
52:
53:
54:
Format                           : AVI
Format/Info                      : Audio Video Interleave
Format profile                   : OpenDML
File size                        : 2.00 GiB
Duration                         : 1h 27mn
Overall bit rate                 : 3 282 Kbps
Writing application              : VirtualDubMod 1.5.4.1 (build 2178/release)
Writing library                  : VirtualDubMod build 2178/release

Video
ID                               : 0
Format                           : MPEG-4 Visual
Format settings, BVOP            : 1
Format settings, QPel            : No
Format settings, GMC             : No warppoints
Format settings, Matrix          : Default (H.263)
Muxing mode                      : Packed bitstream
Codec ID                         : DX50
Codec ID/Hint                    : DivX 5
Duration                         : 1h 27mn
Bit rate                         : 2 825 Kbps
Width                            : 720 pixels
Height                           : 544 pixels
Display aspect ratio             : 4:3
Frame rate                       : 25.000 fps
Color space                      : YUV
Chroma subsampling               : 4:2:0
Bit depth                        : 8 bits
Scan type                        : Progressive
Compression mode                 : Lossy
Bits/(Pixel*Frame)               : 0.288
Stream size                      : 1.72 GiB (86%)
Writing library                  : DivX 5.2.1 (WaffleDay) (UTC 2004-09-08)

Audio
ID                               : 1
Format                           : AC-3
Format/Info                      : Audio Coding 3
Mode extension                   : CM (complete main)
Codec ID                         : 2000
Duration                         : 1h 27mn
Bit rate mode                    : Constant
Bit rate                         : 448 Kbps
Channel(s)                       : 6 channels
Channel positions                : Front: L C R, Side: L R, LFE
Sampling rate                    : 48.0 KHz
Bit depth                        : 16 bits
Compression mode                 : Lossy
Delay relative to video          : 7s 171ms
Stream size                      : 279 MiB (14%)
Alignment                        : Split accross interleaves
Interleave, duration             : 96 ms (2.40 video frames)
Interleave, preload duration     : 96 ms

Second file:
code:
1:
2:
3:
4:
5:
6:
7:
8:
9:
10:
11:
12:
13:
14:
15:
16:
17:
18:
19:
20:
21:
22:
23:
24:
25:
26:
27:
28:
29:
30:
31:
32:
33:
34:
35:
36:
37:
38:
39:
40:
41:
42:
43:
44:
45:
46:
47:
48:
49:
50:
51:
52:
Format                           : AVI
Format/Info                      : Audio Video Interleave
File size                        : 699 MiB
Duration                         : 48mn 33s
Overall bit rate                 : 2 013 Kbps
Writing application              : VirtualDubMod 1.5.4.1 (build 2178/release)
Writing library                  : VirtualDubMod build 2178/release

Video
ID                               : 0
Format                           : MPEG-4 Visual
Format profile                   : Advanced Simple@L5
Format settings, BVOP            : 1
Format settings, QPel            : No
Format settings, GMC             : No warppoints
Format settings, Matrix          : Custom
Codec ID                         : XVID
Codec ID/Hint                    : XviD
Duration                         : 48mn 33s
Bit rate                         : 1 750 Kbps
Width                            : 720 pixels
Height                           : 416 pixels
Display aspect ratio             : 16:9
Frame rate                       : 25.000 fps
Color space                      : YUV
Chroma subsampling               : 4:2:0
Bit depth                        : 8 bits
Scan type                        : Progressive
Compression mode                 : Lossy
Bits/(Pixel*Frame)               : 0.234
Stream size                      : 608 MiB (87%)
Writing library                  : XviD 1.2.0.dev47 (UTC 2006-11-01)

Audio
ID                               : 1
Format                           : AC-3
Format/Info                      : Audio Coding 3
Mode extension                   : CM (complete main)
Codec ID                         : 2000
Duration                         : 48mn 32s
Bit rate mode                    : Constant
Bit rate                         : 256 Kbps
Channel(s)                       : 2 channels
Channel positions                : Front: L R
Sampling rate                    : 48.0 KHz
Bit depth                        : 16 bits
Compression mode                 : Lossy
Stream size                      : 88.9 MiB (13%)
Alignment                        : Aligned on interleaves
Interleave, duration             : 96 ms (2.40 video frames)
Interleave, preload duration     : 96 ms

p.s. Gemini 5.1 plays the same files without any issues.
21.01.2011 01:00 mr.mavr is offline Send an Email to mr.mavr Search for Posts by mr.mavr Add mr.mavr to your Buddy List
Tree Structure | Board Structure
Jump to:
Post New Thread Post Reply
i-have-a-dreambox.com | Dreambox - Support » ...::: Archiv - The Gemini Project (GP2 und GP) :::... » ...::: The Gemini Project 2 :::... » The Gemini Project DM500HD » iCVS + GP3 + AVI problem

Privacy policy | Team | Suchen | Hilfe


Powered by Burning Board 2.3.6 © 2001-2003 WoltLab GbR