i-have-a-dreambox.com | Dreambox - Support

Register Calendar Members List Team Members Galerie to Portal Go to the Main Page

Boardrules Frequently Asked Questions Statistik Statistik Search Pinwand Dreambox Blog Ihad/Gemini Fan-Shop
i-have-a-dreambox.com | Dreambox - Support » ...::: Dreambox Software :::... » Software allgemein » MKV abspielen funktioniert teilweise nicht » Hello Guest [Login|Register]
Last Post | First Unread Post Print Page | Add Thread to Favorites
Post New Thread Post Reply
Go to the bottom of this page MKV abspielen funktioniert teilweise nicht
Author
Post « Previous Thread | Next Thread »
Ryback85
Fortgeschrittener


Registration Date: 19.10.2009
Posts: 603
Which box: DM7020HDv2
External Storage: HDD
Which Image: DMM original

Hilfe MKV abspielen funktioniert teilweise nicht Reply to this Post Post Reply with Quote Edit/Delete Posts Report Post to a Moderator       Go to the top of this page

Hallo,

ich habe leider das Problem das einige mkv nicht abspielen wollen, ich habe noch nicht raus gefunden woran das liegen kann. Die Box startet das Abspielen aber es kommt kein Bild und kein Ton und auch der Fortschrittbalken läuft nicht.

Hier die mkv tut es nicht

quote:
General Unique ID : 197030314535205872676471650409815608420 (0x943AA8847BCB4E582F81FD52194A0C64) Format : Matroska Format version : Version 4 / Version 2 File size : 1.78 GiB Duration : 40 min 39 s Overall bit rate : 6 274 kb/s Encoded date : UTC 2019-07-24 02:05:51 Writing application : mkvmerge v31.0.0 ('Dolores In A Shoestand') 64-bit Writing library : libebml v1.3.6 + libmatroska v1.4.9 Video ID : 1 Format : AVC Format/Info : Advanced Video Codec Format profile : High@L4.1 Format settings : CABAC / 4 Ref Frames Format settings, CABAC : Yes Format settings, RefFrames : 4 frames Codec ID : V_MPEG4/ISO/AVC Duration : 40 min 39 s Bit rate : 5 888 kb/s Width : 1 920 pixels Height : 1 080 pixels Display aspect ratio : 16:9 Frame rate mode : Constant Frame rate : 25.000 FPS Color space : YUV Chroma subsampling : 4:2:0 Bit depth : 8 bits Scan type : Progressive Bits/(Pixel*Frame) : 0.114 Stream size : 1.67 GiB (94%) Writing library : x264 core 157 r2969 d4099dd Encoding settings : cabac=1 / ref=4 / deblock=1:-3:-3 / analyse=0x3:0x113 / me=umh / subme=7 / psy=1 / psy_rd=1.00:0.00 / mixed_ref=1 / me_range=16 / chroma_me=1 / trellis=1 / 8x8dct=1 / cqm=0 / deadzone=21,11 / fast_pskip=0 / chroma_qp_offset=-2 / threads=24 / lookahead_threads=4 / sliced_threads=0 / nr=0 / decimate=1 / interlaced=0 / bluray_compat=0 / constrained_intra=0 / bframes=3 / b_pyramid=2 / b_adapt=1 / b_bias=0 / direct=1 / weightb=1 / open_gop=0 / weightp=2 / keyint=250 / keyint_min=25 / scenecut=40 / intra_refresh=0 / rc_lookahead=40 / rc=crf / mbtree=1 / crf=20.0 / qcomp=0.60 / qpmin=0 / qpmax=69 / qpstep=4 / ip_ratio=1.40 / aq=1:1.00 Default : Yes Forced : No Audio ID : 2 Format : AC-3 Format/Info : Audio Coding 3 Format settings, Endianness : Big Codec ID : A_AC3 Duration : 40 min 39 s Bit rate mode : Constant Bit rate : 384 kb/s Channel(s) : 6 channels Channel positions : Front: L C R, Side: L R, LFE Sampling rate : 48.0 kHz Frame rate : 31.250 FPS (1536 SPF) Bit depth : 16 bits Compression mode : Lossy Stream size : 112 MiB (6%) Language : German Service kind : Complete Main Default : Yes Forced : No


Die mkv tut es
quote:
General Unique ID : 10322175648507951787743192805426124249 (0x7C3FA8D3704C0D4ACC25F63B6D8D5D9) Complete name :geht.mkv Format : Matroska Format version : Version 4 / Version 2 File size : 3.52 GiB Duration : 46mn 26s Overall bit rate : 10.8 Mbps Encoded date : UTC 2019-07-23 22:34:35 Writing application : mkvmerge v33.1.0 ('Primrose') 64-bit Writing library : libebml v1.3.7 + libmatroska v1.5.0 DURATION : 00:46:12.829000000 NUMBER_OF_FRAMES : 873 NUMBER_OF_BYTES : 29813 _STATISTICS_WRITING_APP : mkvmerge v33.1.0 ('Primrose') 64-bit _STATISTICS_WRITING_DATE_UTC : 2019-07-23 22:34:35 _STATISTICS_TAGS : BPS DURATION NUMBER_OF_FRAMES NUMBER_OF_BYTES Video ID : 1 Format : AVC Format/Info : Advanced Video Codec Format profile : High@L4.0 Format settings, CABAC : Yes Format settings, ReFrames : 4 frames Codec ID : V_MPEG4/ISO/AVC Duration : 46mn 26s Bit rate mode : Constant Bit rate : 10 000 Kbps Width : 1 920 pixels Height : 1 080 pixels Display aspect ratio : 16:9 Frame rate mode : Constant Frame rate : 25.000 fps Color space : YUV Chroma subsampling : 4:2:0 Bit depth : 8 bits Scan type : Progressive Bits/(Pixel*Frame) : 0.193 Stream size : 3.15 GiB (90%) Language : English Default : Yes Forced : No Color primaries : BT.709 Transfer characteristics : BT.709 Matrix coefficients : BT.709 Audio #1 ID : 2 Format : AC-3 Format/Info : Audio Coding 3 Mode extension : CM (complete main) Format settings, Endianness : Big Codec ID : A_AC3 Duration : 46mn 26s Bit rate mode : Constant Bit rate : 448 Kbps Channel(s) : 6 channels Channel positions : Front: L C R, Side: L R, LFE Sampling rate : 48.0 KHz Bit depth : 16 bits Compression mode : Lossy Stream size : 149 MiB (4%) Language : German Default : Yes Forced : No Audio #2 ID : 3 Format : AC-3 Format/Info : Audio Coding 3 Mode extension : CM (complete main) Format settings, Endianness : Big Codec ID : A_AC3 Duration : 46mn 26s Bit rate mode : Constant Bit rate : 448 Kbps Channel(s) : 6 channels Channel positions : Front: L C R, Side: L R, LFE Sampling rate : 48.0 KHz Bit depth : 16 bits Compression mode : Lossy Stream size : 149 MiB (4%) Language : English Default : No Forced : No Text ID : 4 Format : UTF-8 Codec ID : S_TEXT/UTF8 Codec ID/Info : UTF-8 Plain Text Language : English Default : No Forced : No



Habe eine Dreambox
quote:
Gerätebezeichnung: dm7020hd Enigma2 Version: 2016-06-16-tarball Image Version: Experimental 2014-01-02 Frontprozessor Version: V6



Hat noch einer das Problem? KAnn mir da vielleicht einer helfen?
25.07.2019 18:39 Ryback85 is offline Send an Email to Ryback85 Search for Posts by Ryback85 Add Ryback85 to your Buddy List
r00ts r00ts is a male
Newbie


images/avatars/avatar-2408.gif

Registration Date: 19.11.2014
Posts: 77
Which box: ONE UltraHD
External Storage: HDD
Which Image: OE 2.6

Reply to this Post Post Reply with Quote Edit/Delete Posts Report Post to a Moderator       Go to the top of this page

Mediaplayer nicht mehr ausreichend?

__________________
|| Dreambox ONE inkl. 1TB Festplatte ||
|| Astra 19,2 || Sky Komplett inkl. sportdigital.tv || HD+ || MTV Unlimited || ORF ||
27.07.2019 10:46 r00ts is offline Search for Posts by r00ts Add r00ts to your Buddy List
utakurt
User


images/avatars/avatar-3753.jpg

Registration Date: 31.01.2004
Posts: 235

das Problem hatte ich auch.....speziell bei UHD Filmen Reply to this Post Post Reply with Quote Edit/Delete Posts Report Post to a Moderator       Go to the top of this page

...und es hat ausnahmslos immer folgendes geholfen:

https://www.chip.de/downloads/MKVToolnix_42094730.html

Alle Untertitel und nicht benötigten Tonspuren mit diesem Toll rausgeschmissen - danach hat sich jede mkv tadellos abspielen lassen....


Ich hatte auch die tollesten KOnstellationen:

- Film lief offensichtlich ab, Bild & Ton gleich null

- oder nur der Ton war zu hören

- oder der Film ist angelaufen, indem Moment wo ich Pause/Vorlauf usw wollte, Absturz

This post has been edited 1 time(s), it was last edited by utakurt: 28.07.2019 10:33.

28.07.2019 10:31 utakurt is offline Send an Email to utakurt Search for Posts by utakurt Add utakurt to your Buddy List
Tree Structure | Board Structure
Jump to:
Post New Thread Post Reply
i-have-a-dreambox.com | Dreambox - Support » ...::: Dreambox Software :::... » Software allgemein » MKV abspielen funktioniert teilweise nicht

Privacy policy | Team | Suchen | Hilfe


Powered by Burning Board 2.3.6 © 2001-2003 WoltLab GbR